<?xml version="1.0" standalone="no"?>
<!DOCTYPE svg PUBLIC "-//W3C//DTD SVG 1.1//EN" "http://www.w3.org/Graphics/SVG/1.1/DTD/svg11.dtd" >
<svg>
<metadata>
Created by FontForge 20090622 at Mon Aug 29 13:31:02 2016
 By deploy user
Copyright (c) 2011 by Roger S. Nelsson. All rights reserved.
</metadata>
<defs>
<font id="FamiliarPro-Bold" horiz-adv-x="556" >
  <font-face 
    font-family="Familiar Pro"
    font-weight="700"
    font-stretch="normal"
    units-per-em="1000"
    panose-1="2 11 7 4 2 2 2 3 2 4"
    ascent="800"
    descent="-200"
    x-height="527"
    cap-height="717"
    bbox="-155 -221 1002 970"
    underline-thickness="50"
    underline-position="-50"
    unicode-range="U+0020-U+FB02"
  />
<missing-glyph horiz-adv-x="500" 
d="M4 0v688h491v-688h-491zM82 639l168 -251l166 251h-334zM53 594v-501l167 251zM446 594l-167 -250l167 -251v501zM416 49l-166 250l-168 -250h334z" />
    <glyph glyph-name=".notdef" horiz-adv-x="500" 
d="M4 0v688h491v-688h-491zM82 639l168 -251l166 251h-334zM53 594v-501l167 251zM446 594l-167 -250l167 -251v501zM416 49l-166 250l-168 -250h334z" />
    <glyph glyph-name=".null" horiz-adv-x="0" 
 />
    <glyph glyph-name="nonmarkingreturn" horiz-adv-x="333" 
 />
    <glyph glyph-name="space" unicode=" " horiz-adv-x="278" 
 />
    <glyph glyph-name="exclam" unicode="!" horiz-adv-x="333" 
d="M241 717v-190l-38 -333h-75l-39 333v190h152zM86 68q0 41 16 58t63 17t63.5 -17t16.5 -58t-16.5 -57.5t-63.5 -16.5t-63 16.5t-16 57.5z" />
    <glyph glyph-name="quotedbl" unicode="&#x22;" horiz-adv-x="474" 
d="M298 451l-20 133v133h115v-133l-20 -133h-75zM100 451l-20 133v133h116v-133l-20 -133h-76z" />
    <glyph glyph-name="numbersign" unicode="#" 
d="M201 191l-32 -195h-99l31 195h-86l8 96h94l21 129h-104l8 96h111l32 196h99l-31 -196h100l31 196h101l-32 -196h87l-8 -96h-94l-21 -129h104l-8 -96h-112l-32 -195h-99l32 195h-101zM338 416h-101l-21 -129h101z" />
    <glyph glyph-name="dollar" unicode="$" 
d="M251 94v208q-38 9 -64 17.5t-54.5 25t-45 38.5t-27.5 56.5t-11 80.5q0 91 46 141t156 54v59h54v-59q38 -4 60 -8t50 -16t43.5 -31.5t29 -55t18.5 -85.5h-127q-4 49 -19.5 67t-54.5 22v-190q58 -16 91.5 -30t65.5 -38.5t45.5 -62t13.5 -91.5q0 -94 -49.5 -147.5
t-166.5 -62.5v-95h-54v95q-118 10 -166 61t-52 163h130q6 -64 24.5 -87.5t63.5 -28.5zM305 286v-194q45 3 65.5 25t20.5 67q0 49 -21.5 71t-64.5 31zM251 433v175q-40 -3 -58.5 -22t-18.5 -57q0 -76 77 -96z" />
    <glyph glyph-name="percent" unicode="%" horiz-adv-x="889" 
d="M137 531q0 -49 15 -69t55 -20q39 0 54 19.5t15 69.5t-15 70.5t-54 20.5t-54.5 -20t-15.5 -71zM33 530q0 90 39.5 138t136.5 48q91 0 131 -45t40 -140q0 -89 -39 -136t-136 -47q-92 0 -132 44.5t-40 137.5zM289 -21h-84l393 737h82zM507 165q0 90 39 137.5t136 47.5
q91 0 131.5 -44.5t40.5 -139.5q0 -89 -39 -136t-136 -47q-93 0 -132.5 44.5t-39.5 137.5zM611 167q0 -50 15 -70t55 -20q39 0 54 19.5t15 69.5t-15 70t-54 20q-40 0 -55 -20t-15 -69z" />
    <glyph glyph-name="ampersand" unicode="&#x26;" horiz-adv-x="722" 
d="M612 527v-92h80v-123h-80v-312h-309q-139 0 -195.5 54.5t-56.5 152.5q0 135 110 177q-39 17 -60.5 50.5t-21.5 96.5q0 99 54.5 142.5t163.5 43.5h129v-123h-65q-90 0 -114.5 -14t-24.5 -60q0 -53 21.5 -69t89.5 -16h140v92h139zM473 312h-143q-83 0 -109.5 -19t-26.5 -77
q0 -57 30 -75t135 -18h114v189z" />
    <glyph glyph-name="quotesingle" unicode="'" horiz-adv-x="238" 
d="M156 451h-75l-20 133v133h115v-133z" />
    <glyph glyph-name="parenleft" unicode="(" horiz-adv-x="333" 
d="M308 -194h-100q-79 111 -123.5 219t-44.5 238q0 131 45.5 239.5t123.5 214.5h100q-63 -116 -94.5 -217t-31.5 -236q0 -132 30 -230.5t95 -227.5z" />
    <glyph glyph-name="parenright" unicode=")" horiz-adv-x="333" 
d="M24 717h100q79 -110 123.5 -219t44.5 -238q0 -131 -45 -239t-124 -215h-100q63 115 94.5 215.5t31.5 237.5q0 255 -125 458z" />
    <glyph glyph-name="asterisk" unicode="*" horiz-adv-x="389" 
d="M124 387l-66 48l76 96l-111 32l25 77l106 -42l-4 123h86l-5 -123l109 41l25 -79l-113 -29l75 -97l-67 -46l-67 97z" />
    <glyph glyph-name="plus" unicode="+" horiz-adv-x="584" 
d="M233 35v193h-193v117h193v193h117v-193h193v-117h-193v-193h-117z" />
    <glyph glyph-name="comma" unicode="," horiz-adv-x="278" 
d="M138 -6q-47 0 -63 16.5t-16 57.5q0 42 16.5 58.5t64.5 16.5t63 -19t15 -78q0 -118 -31 -159.5t-109 -41.5v65q33 0 44.5 16t15.5 68z" />
    <glyph glyph-name="hyphen" unicode="-" horiz-adv-x="333" 
d="M28 206v133h276v-133h-276z" />
    <glyph glyph-name="period" unicode="." horiz-adv-x="278" 
d="M59 68q0 41 16 58t63 17t63.5 -17t16.5 -58t-16.5 -57.5t-63.5 -16.5t-63 16.5t-16 57.5z" />
    <glyph glyph-name="slash" unicode="/" horiz-adv-x="278" 
d="M-21 -32l208 749h112l-210 -749h-110z" />
    <glyph glyph-name="zero" unicode="0" 
d="M277 713q138 0 190 -85t52 -280q0 -194 -51.5 -279t-190.5 -85t-190 84.5t-51 278.5q0 197 51.5 281.5t189.5 84.5zM277 599q-40 0 -59.5 -18.5t-29 -72t-9.5 -160.5t9.5 -160t29 -71.5t59.5 -18.5t60 18.5t29.5 72t9.5 159.5t-9.5 160t-29.5 72.5t-60 18.5z" />
    <glyph glyph-name="one" unicode="1" 
d="M114 123h120v414l-120 -39v107l146 108h113v-590h120v-123h-379v123z" />
    <glyph glyph-name="two" unicode="2" 
d="M509 123v-123h-483q0 62 16 112.5t46.5 88t60.5 62.5t74 53q99 63 121 87.5t22 79.5q0 65 -20.5 90.5t-75.5 25.5q-54 0 -73 -26t-21 -98h-139q3 127 57 182.5t178 55.5t180.5 -53.5t56.5 -169.5q0 -42 -8.5 -74t-19.5 -53t-38.5 -44.5t-49 -37l-67.5 -40.5
q-62 -36 -84 -58t-39 -60h306z" />
    <glyph glyph-name="three" unicode="3" 
d="M31 208h139q3 -59 21 -84.5t78 -25.5q56 0 79.5 25t23.5 87q0 58 -24 80.5t-91 22.5h-38v112h39q49 0 70.5 18.5t21.5 72.5q0 45 -18.5 64t-68.5 19q-53 0 -70.5 -22t-21.5 -78h-129q5 107 54.5 160.5t171.5 53.5q225 0 225 -189q0 -115 -94 -144q116 -26 116 -175
q0 -221 -248 -221q-114 0 -172.5 51t-63.5 173z" />
    <glyph glyph-name="four" unicode="4" 
d="M309 0v153h-285v120q112 240 278 439h147v-447h80v-112h-80v-153h-140zM136 265h173l2 281q-104 -138 -175 -281z" />
    <glyph glyph-name="five" unicode="5" 
d="M33 188h139q5 -49 28.5 -69.5t73.5 -20.5q55 0 79 28.5t24 103.5q0 72 -24 98.5t-85 26.5q-39 0 -60 -12.5t-37 -41.5l-116 18l54 381h381v-123h-279l-22 -131q35 23 108 23q115 0 169 -56.5t54 -179.5q0 -122 -58 -185.5t-196 -63.5q-111 0 -168.5 47t-64.5 157z" />
    <glyph glyph-name="six" unicode="6" 
d="M507 533h-137q-5 66 -80 66q-35 0 -57.5 -12.5t-34.5 -39t-16.5 -56.5t-7.5 -78q40 47 132 47q114 0 164.5 -59t50.5 -173q0 -126 -59.5 -185t-180.5 -59q-137 0 -191.5 84t-54.5 296q0 36 1.5 64.5t7.5 66.5t16.5 66.5t30.5 58.5t47 49t68.5 31.5t92.5 12.5
q98 0 146.5 -44t61.5 -136zM180 224q0 -71 25 -98.5t81 -27.5q21 0 35.5 4t29.5 16.5t23 40t8 70.5q0 67 -22.5 92t-75.5 25q-55 0 -79.5 -27t-24.5 -95z" />
    <glyph glyph-name="seven" unicode="7" 
d="M33 577v123h490v-105q-37 -38 -75.5 -93.5t-79 -132t-67.5 -174t-31 -195.5h-140q4 93 30.5 187t66 169t74.5 128.5t69 92.5h-337z" />
    <glyph glyph-name="eight" unicode="8" 
d="M279 430q44 0 65 19.5t21 66.5q0 45 -20.5 64t-66.5 19q-49 0 -69 -20.5t-20 -61.5q0 -46 22 -66.5t68 -20.5zM521 206q0 -223 -246 -223q-240 0 -240 213q0 150 107 184q-46 20 -65.5 54t-19.5 91q0 96 53 142t168 46q119 0 169 -48t50 -143q0 -56 -18 -87t-65 -52
q107 -42 107 -177zM378 206q0 57 -23 83.5t-79 26.5q-54 0 -76 -25.5t-22 -82.5q0 -61 23 -86t76 -25q54 0 77.5 25.5t23.5 83.5z" />
    <glyph glyph-name="nine" unicode="9" 
d="M45 164h136q6 -34 25.5 -50t60.5 -16q54 0 82.5 38.5t29.5 147.5q-36 -48 -142 -48q-206 0 -206 231q0 246 232 246q63 0 109 -18.5t73.5 -48.5t44.5 -76.5t22.5 -95t5.5 -111.5q0 -200 -60.5 -289.5t-197.5 -89.5q-105 0 -155 47.5t-60 132.5zM370 469q0 72 -24 101
t-75 29q-56 0 -76.5 -30.5t-20.5 -95.5q0 -71 22 -97t77 -26q52 0 74.5 24.5t22.5 94.5z" />
    <glyph glyph-name="colon" unicode=":" horiz-adv-x="333" 
d="M87 68q0 41 16 58t63 17t63.5 -17t16.5 -58t-16.5 -57.5t-63.5 -16.5t-63 16.5t-16 57.5zM87 439q0 41 16 58t63 17t63.5 -17t16.5 -58t-16.5 -57.5t-63.5 -16.5t-63 16.5t-16 57.5z" />
    <glyph glyph-name="semicolon" unicode=";" horiz-adv-x="333" 
d="M87 439q0 41 16 58t63 17t63.5 -17t16.5 -58t-16.5 -57.5t-63.5 -16.5t-63 16.5t-16 57.5zM166 -6q-47 0 -63 16.5t-16 57.5q0 42 16.5 58.5t64.5 16.5t63 -19t15 -78q0 -118 -31 -159.5t-109 -41.5v65q33 0 44.5 16t15.5 68z" />
    <glyph glyph-name="less" unicode="&#x3c;" horiz-adv-x="584" 
d="M543 551v-118l-356 -147l356 -146v-118l-503 214v100z" />
    <glyph glyph-name="equal" unicode="=" horiz-adv-x="584" 
d="M40 119v117h503v-117h-503zM40 338v117h503v-117h-503z" />
    <glyph glyph-name="greater" unicode="&#x3e;" horiz-adv-x="584" 
d="M40 22v118l356 147l-356 146v118l503 -215v-99z" />
    <glyph glyph-name="question" unicode="?" horiz-adv-x="611" 
d="M195 500h-139q1 128 62.5 176.5t186.5 48.5q124 0 188.5 -46t64.5 -164q0 -42 -7.5 -71.5t-28 -51.5t-37.5 -34t-53 -32q-40 -23 -51 -45t-11 -81h-129q0 70 10.5 107.5t28 55t62.5 45.5q29 18 41 28t22 31t10 52q0 51 -24 71.5t-82 20.5q-63 0 -85 -23.5t-29 -87.5z
M230 68q0 41 16 58t63 17t63.5 -17t16.5 -58t-16.5 -57.5t-63.5 -16.5t-63 16.5t-16 57.5z" />
    <glyph glyph-name="at" unicode="@" horiz-adv-x="975" 
d="M718 0l56 -59q-96 -74 -253 -74q-92 0 -168 21.5t-137 66.5t-95 124t-34 186q0 191 107.5 304.5t315.5 113.5q179 0 277 -86t98 -243q0 -145 -78 -229.5t-191 -84.5q-36 0 -54.5 11.5t-22.5 42.5q-25 -27 -51.5 -40.5t-67.5 -13.5q-75 0 -120.5 47t-45.5 144
q0 115 63 191t171 76q41 0 69 -14.5t51 -51.5l13 54h102l-63 -286q-7 -35 -7 -42q0 -13 5 -17.5t17 -4.5q53 0 88.5 54.5t35.5 152.5q0 257 -287 257q-333 0 -333 -333q0 -157 79.5 -237t261.5 -80q125 0 198 50zM368 237q0 -101 80 -101q62 0 96.5 49.5t34.5 118.5
q0 99 -83 99q-61 0 -94.5 -47t-33.5 -119z" />
    <glyph glyph-name="A" unicode="A" horiz-adv-x="722" 
d="M708 0h-162q-13 50 -43 152h-291l-42 -152h-157q114 381 264 717h166q158 -351 265 -717zM358 553q-57 -128 -107 -278h213q-49 146 -106 278z" />
    <glyph glyph-name="B" unicode="B" horiz-adv-x="722" 
d="M75 717h350q109 0 163.5 -43.5t54.5 -142.5q0 -39 -7.5 -67t-22.5 -44t-25.5 -22.5t-26.5 -13.5q110 -43 110 -177q0 -98 -56.5 -152.5t-195.5 -54.5h-344v717zM361 594h-138v-159h166q68 0 89.5 15.5t21.5 69.5q0 32 -9 46.5t-37.5 21t-92.5 6.5zM385 312h-162v-189h133
q104 0 134.5 16t30.5 76q0 63 -26 80t-110 17z" />
    <glyph glyph-name="C" unicode="C" horiz-adv-x="722" 
d="M531 236h148q-18 -252 -309 -252q-165 0 -245 88t-80 283q0 194 79.5 286t246.5 92q273 0 308 -239h-148q-15 58 -46 85.5t-114 27.5q-93 0 -134.5 -61.5t-41.5 -203.5q0 -118 39.5 -175t138.5 -57q76 0 112.5 28t45.5 98z" />
    <glyph glyph-name="D" unicode="D" horiz-adv-x="722" 
d="M75 717h299q169 0 238 -80.5t69 -274.5q0 -188 -72 -275t-236 -87h-298v717zM338 594h-115v-471h131q106 0 141.5 49.5t35.5 188.5q0 53 -2 85.5t-10 61t-20 43.5t-34.5 25.5t-52 14t-74.5 3.5z" />
    <glyph glyph-name="E" unicode="E" horiz-adv-x="667" 
d="M75 0v717h529v-123h-381v-157h352v-123h-352v-191h397v-123h-545z" />
    <glyph glyph-name="F" unicode="F" horiz-adv-x="611" 
d="M75 0v717h504v-123h-356v-168h311v-123h-311v-303h-148z" />
    <glyph glyph-name="G" unicode="G" horiz-adv-x="778" 
d="M732 385v-84q0 -170 -86.5 -243.5t-249.5 -73.5q-58 0 -105.5 9t-95 34.5t-80 66t-52.5 108.5t-20 157q0 94 22 163.5t55.5 109t82.5 63t94 31t99 7.5q305 0 325 -239h-148q-7 56 -45.5 84.5t-127.5 28.5q-108 0 -157.5 -53.5t-49.5 -195.5q0 -76 13.5 -126t41.5 -76
t62.5 -36t86.5 -10q107 0 147 35t40 117h-166v123h314z" />
    <glyph glyph-name="H" unicode="H" horiz-adv-x="722" 
d="M72 0v717h148v-276h281v276h148v-717h-148v318h-281v-318h-148z" />
    <glyph glyph-name="I" unicode="I" horiz-adv-x="278" 
d="M65 0v717h148v-717h-148z" />
    <glyph glyph-name="J" unicode="J" 
d="M333 717h148v-510q0 -121 -54.5 -171.5t-175.5 -50.5q-72 0 -117 13.5t-71.5 47.5t-36 82t-10.5 126h148q1 -87 17.5 -116.5t67.5 -29.5q48 0 66 24.5t18 90.5v494z" />
    <glyph glyph-name="K" unicode="K" horiz-adv-x="722" 
d="M82 0v717h148v-301l281 301h194l-285 -289l301 -428h-191l-213 322l-87 -89v-233h-148z" />
    <glyph glyph-name="L" unicode="L" horiz-adv-x="611" 
d="M75 0v717h148v-591h358v-126h-506z" />
    <glyph glyph-name="M" unicode="M" horiz-adv-x="833" 
d="M69 0v717h218l132 -387l127 387h217v-717h-148v527l-127 -374h-144l-127 374v-527h-148z" />
    <glyph glyph-name="N" unicode="N" horiz-adv-x="722" 
d="M72 0v717h151l279 -473v473h148v-717h-148l-282 476v-476h-148z" />
    <glyph glyph-name="O" unicode="O" horiz-adv-x="778" 
d="M43 359q0 94 21 163.5t53 109t79.5 63t91.5 31t99 7.5q57 0 102.5 -8t93 -32t79.5 -64t52.5 -109t20.5 -161q0 -91 -19.5 -159.5t-51 -108.5t-78 -65t-93 -33.5t-103.5 -8.5q-59 0 -107 9t-94 34.5t-77 66.5t-50 108t-19 157zM193 355q0 -77 12 -126t39 -75t61.5 -35
t89.5 -9q35 0 59 4t50.5 18.5t43 40.5t27 74t10.5 116q0 136 -45.5 190t-153.5 54q-104 0 -148.5 -54t-44.5 -198z" />
    <glyph glyph-name="P" unicode="P" horiz-adv-x="667" 
d="M75 0v717h271q44 0 73 -2t64.5 -9t58.5 -22.5t43.5 -39.5t30 -62.5t9.5 -89.5q0 -73 -20 -121t-59.5 -70.5t-81.5 -30.5t-102 -8h-139v-262h-148zM325 594h-102v-209h93q94 0 126.5 20.5t32.5 92.5q0 60 -28 78t-122 18z" />
    <glyph glyph-name="Q" unicode="Q" horiz-adv-x="778" 
d="M446 -125h-115v112q-63 6 -112 26t-90.5 61.5t-63.5 113t-22 171.5q0 94 21 163.5t53 109t79.5 63t91.5 31t99 7.5q57 0 102.5 -8t93 -32t79.5 -64t52.5 -109t20.5 -161q0 -101 -23 -173.5t-65 -113t-90.5 -60.5t-110.5 -25v-112zM193 355q0 -125 32.5 -178t105.5 -64v95
h115v-95q67 9 103 63t36 187q0 136 -45.5 190t-153.5 54q-104 0 -148.5 -54t-44.5 -198z" />
    <glyph glyph-name="R" unicode="R" horiz-adv-x="722" 
d="M75 0v717h311q40 0 63 -1t57 -5t53 -12t42 -23.5t35 -38.5t20.5 -57t8.5 -78q0 -99 -36.5 -147t-103.5 -64l187 -291h-180l-176 282h-133v-282h-148zM365 594h-142v-189h133q94 0 126.5 18.5t32.5 83.5q0 54 -28 70.5t-122 16.5z" />
    <glyph glyph-name="S" unicode="S" horiz-adv-x="667" 
d="M40 225h148q3 -33 8 -50.5t20.5 -34.5t47 -23.5t83.5 -6.5q65 0 97.5 17t32.5 67q0 34 -18.5 53t-64.5 32l-174 47q-77 20 -120.5 63t-43.5 133q0 211 269 211q275 0 280 -226h-148q-3 29 -6.5 42t-16.5 29.5t-41 22.5t-74 6q-60 0 -86.5 -15t-26.5 -56q0 -36 18 -52
t55 -26l160 -43q44 -12 73.5 -25t58 -36t42.5 -60t14 -89q0 -221 -280 -221q-166 0 -233 60t-74 181z" />
    <glyph glyph-name="T" unicode="T" horiz-adv-x="611" 
d="M232 0v591h-216v126h579v-126h-215v-591h-148z" />
    <glyph glyph-name="U" unicode="U" horiz-adv-x="722" 
d="M73 717h148v-378q0 -52 1 -81t6 -58.5t13.5 -43.5t25 -26.5t39.5 -16t57 -3.5q90 0 114 41t24 182v384h148v-474q0 -81 -19.5 -133.5t-59 -79t-86.5 -36.5t-116 -10q-72 0 -122 10.5t-91.5 38t-61.5 80t-20 132.5v472z" />
    <glyph glyph-name="V" unicode="V" horiz-adv-x="667" 
d="M406 0h-148q-147 351 -246 717h160q59 -247 164 -539q95 266 163 539h155q-97 -352 -248 -717z" />
    <glyph glyph-name="W" unicode="W" horiz-adv-x="944" 
d="M359 0h-156q-125 369 -192 717h156q41 -257 114 -513l110 513h163l114 -516q78 265 115 516h150q-67 -348 -192 -717h-157l-112 521z" />
    <glyph glyph-name="X" unicode="X" horiz-adv-x="667" 
d="M9 0l236 369l-220 348h176l133 -231l134 231h172l-221 -346l238 -371h-180l-144 245l-150 -245h-174z" />
    <glyph glyph-name="Y" unicode="Y" horiz-adv-x="667" 
d="M262 0v281q-140 195 -253 436h174q54 -143 156 -302q93 147 150 302h169q-108 -236 -248 -438v-279h-148z" />
    <glyph glyph-name="Z" unicode="Z" horiz-adv-x="611" 
d="M21 0v121l373 473h-352v123h540v-116l-381 -475h388v-126h-568z" />
    <glyph glyph-name="bracketleft" unicode="[" horiz-adv-x="333" 
d="M65 -194v911h245v-100h-120v-710h120v-101h-245z" />
    <glyph glyph-name="backslash" unicode="\" horiz-adv-x="278" 
d="M90 717l209 -749h-111l-209 749h111z" />
    <glyph glyph-name="bracketright" unicode="]" horiz-adv-x="333" 
d="M267 717v-911h-245v101h120v710h-120v100h245z" />
    <glyph glyph-name="asciicircum" unicode="^" horiz-adv-x="584" 
d="M59 324l182 380h103l180 -380h-120l-112 254l-113 -254h-120z" />
    <glyph glyph-name="underscore" unicode="_" horiz-adv-x="537" 
d="M-2 -125v50h541v-50h-541z" />
    <glyph glyph-name="grave" unicode="`" horiz-adv-x="333" 
d="M145 742l85 -146h-96l-142 146h153z" />
    <glyph glyph-name="a" unicode="a" 
d="M179 367h-131q5 98 59.5 135.5t167.5 37.5q114 0 168.5 -35t54.5 -119v-386h-133v40q-51 -53 -162 -53q-91 0 -131 37.5t-40 108.5q0 81 43 122t110 51l174 27v32q0 36 -20 49.5t-70 13.5t-67.5 -13t-22.5 -48zM359 201v42l-97 -16q-47 -7 -69 -22t-22 -53
q0 -31 18.5 -46.5t63.5 -15.5q60 0 83 28.5t23 82.5z" />
    <glyph glyph-name="b" unicode="b" horiz-adv-x="611" 
d="M63 0v717h139v-236q47 59 155 59q116 0 167.5 -66t51.5 -204q0 -147 -54.5 -214.5t-166.5 -68.5q-57 0 -96 13t-62 50v-50h-134zM198 265q0 -99 27.5 -131.5t89.5 -32.5q65 0 91.5 33.5t26.5 132.5q0 87 -25 123t-95 36q-62 0 -88.5 -34t-26.5 -127z" />
    <glyph glyph-name="c" unicode="c" 
d="M525 349h-1h-138q-9 42 -29 59.5t-70 17.5q-59 0 -83 -32.5t-24 -130.5q0 -97 23 -129.5t77 -32.5t78.5 22t27.5 64h139q-9 -97 -62 -148.5t-176 -51.5q-76 0 -127 20t-77 59t-36 84t-10 108q0 138 55.5 210t201.5 72q112 0 166 -46t65 -145z" />
    <glyph glyph-name="d" unicode="d" horiz-adv-x="611" 
d="M549 0h-134v50q-24 -37 -61.5 -50t-95.5 -13q-118 1 -170 72t-52 206q0 147 56 211t164 64q109 0 154 -59v236h139v-717zM414 264q0 94 -26 128t-88 34q-70 0 -95.5 -36t-25.5 -123q0 -99 27 -132.5t91 -33.5q63 0 90 32.5t27 130.5z" />
    <glyph glyph-name="e" unicode="e" 
d="M376 151h142q-12 -88 -70.5 -126t-169.5 -38q-64 0 -108.5 12.5t-78 43.5t-49.5 87t-16 139q0 49 6 86.5t22.5 73.5t44.5 59.5t74.5 37.5t110.5 14q137 0 188.5 -70t51.5 -245h-355q4 -74 26.5 -99t81.5 -25q42 0 65.5 10.5t33.5 39.5zM170 313h215q-4 68 -29.5 90.5
t-78.5 22.5q-60 0 -81.5 -24t-25.5 -89z" />
    <glyph glyph-name="f" unicode="f" horiz-adv-x="333" 
d="M10 527h77v53q0 75 33 110.5t122 35.5l82 -6v-108q-34 2 -48 2q-18 0 -28.5 -3.5t-15 -13.5t-5.5 -18.5t-1 -26.5v-25h95v-112h-95v-415h-139v415h-77v112z" />
    <glyph glyph-name="g" unicode="g" horiz-adv-x="611" 
d="M53 -55h154q2 -13 5.5 -20.5t13 -17t29.5 -14t51 -4.5q65 0 85 25.5t20 94.5v49q-43 -59 -145 -59q-115 0 -171 63.5t-56 206.5q0 141 54.5 206t163.5 65q120 0 161 -70v57h132v-491q0 -37 -1.5 -60t-7 -52.5t-15.5 -47.5t-29 -37t-46 -29.5t-66.5 -17t-91.5 -6.5
q-116 0 -177 36t-63 123zM182 267q0 -86 23.5 -120t87.5 -34q67 0 93 36.5t26 122.5q0 85 -26 119.5t-94 34.5q-60 0 -85 -33t-25 -126z" />
    <glyph glyph-name="h" unicode="h" horiz-adv-x="611" 
d="M205 717v-238q39 61 150 61q113 0 151 -55t38 -188v-297h-139v272q0 45 -1 63.5t-5 41.5t-13.5 30.5t-26 13t-43.5 5.5q-67 0 -89 -29.5t-22 -107.5v-289h-139v717h139z" />
    <glyph glyph-name="i" unicode="i" horiz-adv-x="278" 
d="M69 0v527h139v-527h-139zM59 656q0 41 16 58t63 17t63.5 -17t16.5 -58t-16.5 -57.5t-63.5 -16.5t-63 16.5t-16 57.5z" />
    <glyph glyph-name="j" unicode="j" horiz-adv-x="278" 
d="M207 527v-504q0 -144 -28.5 -189.5t-124.5 -45.5q-19 0 -34 1t-20 3l-5 1v113q17 -1 26 -1q24 0 35.5 14t11.5 55v553h139zM58 656q0 41 16 58t63 17t63.5 -17t16.5 -58t-16.5 -57.5t-63.5 -16.5t-63 16.5t-16 57.5z" />
    <glyph glyph-name="k" unicode="k" 
d="M68 0v717h139v-385l171 195h171l-184 -200l191 -327h-161l-128 229l-60 -62v-167h-139z" />
    <glyph glyph-name="l" unicode="l" horiz-adv-x="278" 
d="M69 0v717h139v-717h-139z" />
    <glyph glyph-name="m" unicode="m" horiz-adv-x="889" 
d="M63 527h132v-56q48 69 158 69q60 0 91.5 -17t53.5 -57q15 22 29.5 35.5t48 26t80.5 12.5q97 0 133.5 -46.5t36.5 -138.5v-355h-139v313q0 65 -16 89t-63 24q-62 0 -78 -36.5t-16 -137.5v-252h-139v307q0 33 -0.5 47t-4.5 32t-12.5 24t-23.5 11t-39 5q-62 0 -77.5 -32.5
t-15.5 -137.5v-256h-139v527z" />
    <glyph glyph-name="n" unicode="n" horiz-adv-x="611" 
d="M405 0v303q0 25 -0.5 37.5t-3 30t-8 25t-15.5 16t-25.5 11.5t-37.5 3q-70 0 -90 -37.5t-20 -138.5v-250h-139v527h132v-68q31 42 69.5 61.5t106.5 19.5q99 0 134.5 -47.5t35.5 -170.5v-322h-139z" />
    <glyph glyph-name="o" unicode="o" horiz-adv-x="611" 
d="M576 264q0 -277 -272 -277q-269 0 -269 277t270 277q271 0 271 -277zM433 265q0 89 -28.5 125.5t-99.5 36.5q-70 0 -98.5 -36.5t-28.5 -126.5q0 -91 28.5 -127t99.5 -36q70 0 98.5 36t28.5 128z" />
    <glyph glyph-name="p" unicode="p" horiz-adv-x="611" 
d="M64 527h132v-57q27 39 65 54.5t96 15.5q113 0 166 -61.5t53 -217.5q0 -141 -49 -207.5t-170 -66.5q-112 0 -154 58v-248h-139v730zM198 267q0 -91 26.5 -128.5t94.5 -37.5q67 0 90.5 36t23.5 124q0 92 -25 128.5t-93 36.5q-65 0 -91 -35t-26 -124z" />
    <glyph glyph-name="q" unicode="q" horiz-adv-x="611" 
d="M549 527v-730h-139v246q-36 -56 -147 -56q-126 0 -176.5 62.5t-50.5 206.5q0 151 51 217.5t170 66.5q60 0 97 -17t64 -54v58h131zM413 261q0 98 -28.5 131.5t-92.5 33.5q-61 0 -87 -33t-26 -134q0 -92 24.5 -125t90.5 -33q65 0 92 33.5t27 126.5z" />
    <glyph glyph-name="r" unicode="r" horiz-adv-x="389" 
d="M204 0h-139v527h131v-66q24 42 54.5 59.5t81.5 17.5l36 -3v-133q-16 3 -44 3q-32 0 -54.5 -11t-35 -28t-19.5 -46t-9 -56.5t-2 -68.5v-195z" />
    <glyph glyph-name="s" unicode="s" 
d="M32 162h139q4 -42 28.5 -57t82.5 -15q54 0 76 11.5t22 39.5q0 22 -13 33t-49 21l-146 35q-63 15 -93.5 47t-30.5 98q0 82 54.5 123.5t176.5 41.5q105 0 162 -36t62 -127h-139q-5 36 -22.5 48t-64.5 12q-52 0 -71 -11.5t-19 -35.5q0 -19 12.5 -30t45.5 -19l130 -31
q75 -18 109.5 -51.5t34.5 -97.5q0 -174 -238 -174q-241 0 -249 175z" />
    <glyph glyph-name="t" unicode="t" horiz-adv-x="333" 
d="M309 527v-112h-90v-226q0 -59 8 -73.5t48 -14.5l34 2v-103q-48 -8 -99 -8q-22 0 -39 2.5t-30 5.5t-22.5 11.5l-16 14.5t-11 21.5t-7 25.5t-3.5 32.5t-1 37v44.5v228h-69v112h69v130h139v-130h90z" />
    <glyph glyph-name="u" unicode="u" horiz-adv-x="611" 
d="M412 0v56q-43 -69 -163 -69q-98 0 -140 43.5t-42 154.5v342h139v-333q0 -53 19.5 -73t72.5 -20q57 0 81.5 25.5t24.5 96.5v304h139v-527h-131z" />
    <glyph glyph-name="v" unicode="v" 
d="M208 0q-121 260 -197 527h152q42 -203 116 -379q75 183 119 379h146q-76 -267 -197 -527h-139z" />
    <glyph glyph-name="w" unicode="w" horiz-adv-x="778" 
d="M312 0h-150q-100 260 -155 527h144q24 -183 87 -368l82 368h138l84 -368q64 183 88 368h141q-61 -284 -158 -527h-149l-77 339z" />
    <glyph glyph-name="x" unicode="x" 
d="M12 0l183 269l-176 258h170l90 -151l91 151h164l-176 -256l185 -271h-171l-97 160l-97 -160h-166z" />
    <glyph glyph-name="y" unicode="y" 
d="M9 527h153q39 -192 117 -384l115 384h146l-188 -527q-21 -59 -32.5 -87.5t-28.5 -58t-35.5 -41t-45 -18.5t-65.5 -7l-70 4v109q13 -2 23 -2q47 0 71.5 15.5t36.5 71.5q-120 263 -197 541z" />
    <glyph glyph-name="z" unicode="z" horiz-adv-x="500" 
d="M19 0v105l270 310h-251v112h430v-108l-269 -305h281v-114h-461z" />
    <glyph glyph-name="braceleft" unicode="{" horiz-adv-x="389" 
d="M42 213v98q40 0 70 15.5t30 49.5v207q0 78 45 106t141 28h37v-98q-65 0 -83 -13.5t-18 -54.5v-181q0 -53 -20 -73.5t-69 -34.5q49 -14 69 -34.5t20 -73.5v-182q0 -41 18 -54.5t83 -13.5v-98h-37q-96 0 -141 28t-45 106v208q0 34 -30 49.5t-70 15.5z" />
    <glyph glyph-name="bar" unicode="|" horiz-adv-x="280" 
d="M84 -194v911h111v-911h-111z" />
    <glyph glyph-name="braceright" unicode="}" horiz-adv-x="389" 
d="M347 311v-98q-40 0 -70 -15.5t-30 -49.5v-208q0 -78 -45 -106t-141 -28h-37v98q65 0 83 13.5t18 54.5v182q0 53 20 73.5t69 34.5q-49 14 -69 34.5t-20 73.5v181q0 41 -18 54.5t-83 13.5v98h37q96 0 141 -28t45 -106v-207q0 -34 30 -49.5t70 -15.5z" />
    <glyph glyph-name="asciitilde" unicode="~" horiz-adv-x="584" 
d="M137 200h-83q0 165 140 165q48 0 102.5 -25.5t86.5 -25.5q30 0 41 12.5t18 42.5h87q0 -87 -31 -124t-99 -37q-52 0 -113 25t-88 25q-31 0 -44 -15t-17 -43z" />
    <glyph glyph-name="uni00A0" unicode="&#xa0;" horiz-adv-x="278" 
 />
    <glyph glyph-name="exclamdown" unicode="&#xa1;" horiz-adv-x="333" 
d="M92 -190v190l38 333h75l39 -333v-190h-152zM247 459q0 -41 -16 -58t-63 -17t-63.5 17t-16.5 58t16.5 57.5t63.5 16.5t63 -16.5t16 -57.5z" />
    <glyph glyph-name="cent" unicode="&#xa2;" 
d="M525 349h-138q-5 39 -19.5 55.5t-50.5 20.5v-323q37 6 52 26.5t18 58.5h139q-9 -92 -55.5 -142t-153.5 -57v-97h-54v97q-68 3 -114 24.5t-69.5 59.5t-33 81.5t-9.5 103.5q0 131 49.5 203t176.5 79v97h54v-97q100 -4 148.5 -49.5t59.5 -140.5zM180 265q0 -81 16.5 -119
t66.5 -44v323q-51 -9 -67 -46.5t-16 -113.5z" />
    <glyph glyph-name="sterling" unicode="&#xa3;" 
d="M217 563v-172h158v-77h-158v-188h306v-126h-502v126h65v188h-65v77h65v158q0 86 47.5 129t156.5 43q103 0 151 -41.5t52 -135.5h-130q-2 40 -18.5 55.5t-57.5 15.5q-40 0 -55 -12.5t-15 -39.5z" />
    <glyph glyph-name="currency" unicode="&#xa4;" 
d="M199 354q0 -57 17 -80t63 -23q45 0 62.5 22.5t17.5 80.5t-17.5 81t-63.5 23q-45 0 -62 -23t-17 -81zM32 190l61 60q-14 41 -14 103q0 63 15 104l-62 62l83 83l56 -57q45 21 109 21q63 0 108 -20l56 56l82 -83l-62 -62q14 -39 14 -102q0 -61 -14 -102l63 -63l-83 -83
l-57 57q-43 -20 -109 -20q-67 0 -108 19l-55 -55z" />
    <glyph glyph-name="yen" unicode="&#xa5;" 
d="M44 245v112h109q-99 153 -171 308h165q47 -125 141 -270q81 127 135 270h160q-72 -156 -168 -308h106v-112h-166v-49h166v-112h-166v-84h-140v84h-171v112h171v49h-171z" />
    <glyph glyph-name="brokenbar" unicode="&#xa6;" horiz-adv-x="280" 
d="M85 347v370h111v-370h-111zM85 -194v370h111v-370h-111z" />
    <glyph glyph-name="section" unicode="&#xa7;" 
d="M480 550h-130q-2 40 -18.5 55.5t-57.5 15.5q-39 0 -54.5 -12.5t-15.5 -38.5q0 -24 14.5 -37.5t64.5 -41.5l149 -83q89 -47 89 -148q0 -44 -26 -84t-66 -59q32 -27 46.5 -55t14.5 -71q0 -93 -52.5 -138t-161.5 -45q-112 0 -160 48t-55 135h132q5 -44 23.5 -61t67.5 -17
q70 0 70 66q0 21 -12 34.5t-43 32.5l-199 119q-68 41 -68 136q0 49 22.5 80.5t69.5 59.5q-18 20 -26.5 31.5t-16.5 36t-8 54.5q0 164 205 164q101 0 149.5 -41.5t52.5 -135.5zM205 254l152 -88q43 30 43 68q0 21 -16 37t-47 35l-141 82q-18 -6 -30.5 -25t-12.5 -36
q0 -42 52 -73z" />
    <glyph glyph-name="dieresis" unicode="&#xa8;" horiz-adv-x="333" 
d="M195 665q0 37 14.5 52.5t56.5 15.5t57 -15.5t15 -52.5t-14.5 -52t-57.5 -15q-42 0 -56.5 15t-14.5 52zM-6 665q0 37 14.5 52.5t56.5 15.5t57 -15.5t15 -52.5t-14.5 -52t-57.5 -15q-42 0 -56.5 15t-14.5 52z" />
    <glyph glyph-name="copyright" unicode="&#xa9;" horiz-adv-x="737" 
d="M368 651q-280 0 -280 -294t279 -294h2q137 0 208.5 73.5t71.5 221.5q0 147 -72 220t-209 73zM462 292h93q-13 -82 -58.5 -114.5t-116.5 -32.5q-100 0 -150.5 51.5t-50.5 161.5q0 109 47 162t153 53q80 0 121.5 -33.5t54.5 -108.5h-93q-9 36 -29 48.5t-62 12.5
q-53 0 -74 -29.5t-21 -101.5q0 -76 21 -105.5t73 -29.5q88 0 92 66zM369 733q177 0 277 -94.5t100 -281.5q0 -186 -100 -281t-277 -95t-277.5 94.5t-100.5 281.5t100 281.5t278 94.5z" />
    <glyph glyph-name="ordfeminine" unicode="&#xaa;" horiz-adv-x="370" 
d="M129 388q-57 0 -83.5 24t-26.5 76q0 45 23 69t83 33l110 17v13q0 23 -11.5 32t-40.5 9q-61 0 -61 -35h-89q8 64 40.5 85.5t107.5 21.5q81 0 113.5 -21t32.5 -76v-240h-87v37q-28 -45 -111 -45zM235 521v27l-61 -11q-33 -6 -45.5 -15t-12.5 -31q0 -23 11.5 -30.5
t36.5 -7.5q40 0 55.5 15.5t15.5 52.5z" />
    <glyph glyph-name="guillemotleft" unicode="&#xab;" 
d="M70 313l160 159l66 -66l-134 -133l134 -133l-66 -66l-160 159v80zM280 313l160 159l66 -66l-134 -133l134 -133l-66 -66l-160 159v80z" />
    <glyph glyph-name="logicalnot" unicode="&#xac;" horiz-adv-x="584" 
d="M427 133v205h-387v117h503v-322h-116z" />
    <glyph glyph-name="uni00AD" unicode="&#xad;" horiz-adv-x="333" 
d="M28 206v133h276v-133h-276z" />
    <glyph glyph-name="registered" unicode="&#xae;" horiz-adv-x="737" 
d="M212 155v403h162q85 0 118.5 -29t33.5 -89q0 -51 -18.5 -77.5t-64.5 -35.5l101 -172h-95l-88 163h-65v-163h-84zM296 491v-101h65q48 0 64 9t16 45q0 28 -18 37.5t-55 9.5h-72zM369 651q-281 0 -281 -294t279 -294h2q137 0 208.5 73.5t71.5 220.5t-71.5 220.5
t-208.5 73.5zM369 733q177 0 277 -94.5t100 -281.5q0 -186 -100 -281t-277 -95t-277.5 94.5t-100.5 281.5t100 281.5t278 94.5z" />
    <glyph glyph-name="macron" unicode="&#xaf;" horiz-adv-x="333" 
d="M0 606v79h333v-79h-333z" />
    <glyph glyph-name="degree" unicode="&#xb0;" horiz-adv-x="400" 
d="M53 567q0 75 36 111t111 36q147 0 147 -147t-147 -147t-147 147zM117 567q0 -43 19.5 -63t63.5 -20t63.5 20t19.5 63t-19.5 63t-63.5 20t-63.5 -20t-19.5 -63z" />
    <glyph glyph-name="plusminus" unicode="&#xb1;" horiz-adv-x="584" 
d="M40 0v117h503v-117h-503zM233 156v193h-193v117h193v193h117v-193h193v-117h-193v-193h-117z" />
    <glyph glyph-name="twosuperior" unicode="&#xb2;" horiz-adv-x="333" 
d="M318 311h-308q3 50 12 73.5t36.5 49t95.5 68.5q35 21 52.5 41.5t17.5 50.5q0 47 -58 47q-20 0 -32.5 -4.5t-18 -14.5t-7.5 -19.5t-2 -25.5h-90q1 75 38.5 107.5t115.5 32.5q79 0 113.5 -32t34.5 -98q0 -42 -16.5 -69.5t-64.5 -56.5q-58 -35 -72.5 -46.5t-21.5 -24.5h175
v-79z" />
    <glyph glyph-name="threesuperior" unicode="&#xb3;" horiz-adv-x="333" 
d="M11 431h89q1 -30 13.5 -44.5t48.5 -14.5q32 0 46.5 14t14.5 47q0 30 -14.5 41.5t-55.5 11.5h-24v65h18q32 0 47.5 9.5t15.5 39.5q0 22 -11 32.5t-39 10.5q-33 0 -44.5 -13.5t-11.5 -39.5h-86q2 68 34.5 97.5t108.5 29.5q74 0 108.5 -27t34.5 -84q0 -33 -12 -50.5
t-40 -30.5q35 -11 51.5 -32.5t16.5 -65.5q0 -128 -153 -128q-151 0 -156 132z" />
    <glyph glyph-name="acute" unicode="&#xb4;" horiz-adv-x="333" 
d="M102 596l85 146h154l-143 -146h-96z" />
    <glyph glyph-name="mu" unicode="&#xb5;" horiz-adv-x="611" 
d="M66 527h139v-243q0 -111 19.5 -147t72.5 -36q68 0 88 39t20 155v232h139v-527h-131l-1 40q-25 -53 -110 -53q-41 0 -63 11t-34 41v-242h-139v730z" />
    <glyph glyph-name="paragraph" unicode="&#xb6;" 
d="M320 -193h-114v528q-116 4 -163 48.5t-47 134.5q0 104 57.5 145.5t190.5 41.5h312v-110h-41v-788h-114v788h-81v-788z" />
    <glyph glyph-name="periodcentered" unicode="&#xb7;" horiz-adv-x="278" 
d="M59 285q0 41 16 58t63 17t63.5 -17t16.5 -58t-16.5 -57.5t-63.5 -16.5t-63 16.5t-16 57.5z" />
    <glyph glyph-name="cedilla" unicode="&#xb8;" horiz-adv-x="333" 
d="M125 -220q-31 0 -58 5t-39 10l-12 5l8 51q34 -12 82 -12q32 0 45.5 8.5t13.5 29.5q0 18 -10 25.5t-32 7.5h-35l15 100h52l-8 -47h10q101 0 101 -91q0 -48 -31.5 -70t-101.5 -22z" />
    <glyph glyph-name="onesuperior" unicode="&#xb9;" horiz-adv-x="333" 
d="M238 310h-98v297l-108 -36v66l125 80h81v-407z" />
    <glyph glyph-name="ordmasculine" unicode="&#xba;" horiz-adv-x="365" 
d="M357 561q0 -89 -41 -131.5t-133 -42.5t-133.5 42.5t-41.5 131.5t41.5 131t133.5 42q93 0 133.5 -42.5t40.5 -130.5zM257 561q0 51 -17.5 74t-56.5 23q-40 0 -57.5 -24t-17.5 -74q0 -51 17.5 -74t57.5 -23q39 0 56.5 23.5t17.5 74.5z" />
    <glyph glyph-name="guillemotright" unicode="&#xbb;" 
d="M115 472l160 -159v-80l-160 -159l-66 66l134 133l-134 133zM325 472l160 -159v-80l-160 -159l-66 66l134 133l-134 133z" />
    <glyph glyph-name="onequarter" unicode="&#xbc;" horiz-adv-x="834" 
d="M237 0h-78l413 717h77zM238 310h-98v297l-108 -36v66l125 80h81v-407zM632 0v82h-181v73q65 137 176 249h97v-252h51v-70h-51v-82h-92zM528 152h104v154q-56 -62 -104 -154z" />
    <glyph glyph-name="onehalf" unicode="&#xbd;" horiz-adv-x="834" 
d="M237 0h-78l413 717h77zM798 0h-308q3 50 12 73.5t36.5 49t95.5 68.5q35 21 52.5 41.5t17.5 50.5q0 47 -58 47q-20 0 -32.5 -4.5t-18 -14.5t-7.5 -19.5t-2 -25.5h-90q1 75 38.5 107.5t115.5 32.5q79 0 113.5 -32t34.5 -98q0 -42 -16.5 -69.5t-64.5 -56.5
q-58 -35 -72.5 -46.5t-21.5 -24.5h175v-79zM238 310h-98v297l-108 -36v66l125 80h81v-407z" />
    <glyph glyph-name="threequarters" unicode="&#xbe;" horiz-adv-x="834" 
d="M654 0v82h-181v73q65 137 176 249h97v-252h51v-70h-51v-82h-92zM550 152h104v154q-56 -62 -104 -154zM270 0h-79l415 717h77zM17 431h89q1 -30 13.5 -44.5t48.5 -14.5q32 0 46.5 14t14.5 47q0 30 -14.5 41.5t-55.5 11.5h-24v65h18q32 0 47.5 9.5t15.5 39.5q0 22 -11 32.5
t-39 10.5q-33 0 -44.5 -13.5t-11.5 -39.5h-86q2 68 34.5 97.5t108.5 29.5q74 0 108.5 -27t34.5 -84q0 -33 -12 -50.5t-40 -30.5q35 -11 51.5 -32.5t16.5 -65.5q0 -128 -153 -128q-151 0 -156 132z" />
    <glyph glyph-name="questiondown" unicode="&#xbf;" horiz-adv-x="611" 
d="M418 27h139q-1 -66 -18 -111t-51 -69.5t-78 -34.5t-105 -10q-124 0 -188.5 46t-64.5 164q0 42 7.5 71.5t28 51.5t37.5 34t53 32q40 23 51 45t11 81h129q0 -70 -10.5 -107.5t-28 -55t-62.5 -45.5q-29 -18 -41 -28t-22 -31t-10 -52q0 -51 24 -71.5t82 -20.5q64 0 87.5 23.5
t29.5 87.5zM380 459q0 -41 -16 -58t-63 -17t-63.5 17t-16.5 58t16.5 57.5t63.5 16.5t63 -16.5t16 -57.5z" />
    <glyph glyph-name="Agrave" unicode="&#xc0;" horiz-adv-x="722" 
d="M708 0h-162q-13 50 -43 152h-291l-42 -152h-157q114 381 264 717h166q158 -351 265 -717zM358 553q-57 -128 -107 -278h213q-49 146 -106 278zM340 926l85 -146h-96l-142 146h153z" />
    <glyph glyph-name="Aacute" unicode="&#xc1;" horiz-adv-x="722" 
d="M708 0h-162q-13 50 -43 152h-291l-42 -152h-157q114 381 264 717h166q158 -351 265 -717zM358 553q-57 -128 -107 -278h213q-49 146 -106 278zM297 780l85 146h154l-143 -146h-96z" />
    <glyph glyph-name="Acircumflex" unicode="&#xc2;" horiz-adv-x="722" 
d="M708 0h-162q-13 50 -43 152h-291l-42 -152h-157q114 381 264 717h166q158 -351 265 -717zM358 553q-57 -128 -107 -278h213q-49 146 -106 278zM189 781l110 145h125l110 -145h-112l-62 79l-59 -79h-112z" />
    <glyph glyph-name="Atilde" unicode="&#xc3;" horiz-adv-x="722" 
d="M708 0h-162q-13 50 -43 152h-291l-42 -152h-157q114 381 264 717h166q158 -351 265 -717zM358 553q-57 -128 -107 -278h213q-49 146 -106 278zM245 787h-62q0 124 104 124q36 0 77 -19t66 -19q22 0 30 9t14 32h64q0 -65 -22.5 -93t-74.5 -28q-38 0 -84 18.5t-67 18.5
q-40 0 -45 -43z" />
    <glyph glyph-name="Adieresis" unicode="&#xc4;" horiz-adv-x="722" 
d="M708 0h-162q-13 50 -43 152h-291l-42 -152h-157q114 381 264 717h166q158 -351 265 -717zM358 553q-57 -128 -107 -278h213q-49 146 -106 278zM390 849q0 37 14.5 52.5t56.5 15.5t57 -15.5t15 -52.5t-14.5 -52t-57.5 -15q-42 0 -56.5 15t-14.5 52zM189 849
q0 37 14.5 52.5t56.5 15.5t57 -15.5t15 -52.5t-14.5 -52t-57.5 -15q-42 0 -56.5 15t-14.5 52z" />
    <glyph glyph-name="Aring" unicode="&#xc5;" horiz-adv-x="722" 
d="M708 0h-162q-13 50 -43 152h-291l-42 -152h-157q114 381 264 717h166q158 -351 265 -717zM358 553q-57 -128 -107 -278h213q-49 146 -106 278zM475 859q0 -111 -114 -111t-114 111t114 111t114 -111zM412 859q0 51 -51 51t-51 -51t51 -51t51 51z" />
    <glyph glyph-name="AE" unicode="&#xc6;" horiz-adv-x="1000" 
d="M953 0h-501v152h-240q-23 -77 -42 -152h-157q114 381 264 717h667v-123h-344v-157h310v-123h-310v-191h353v-123zM452 594h-81q-63 -142 -121 -319h202v319z" />
    <glyph glyph-name="Ccedilla" unicode="&#xc7;" horiz-adv-x="722" 
d="M375 -220q-31 0 -58 5t-39 10l-12 5l8 51q34 -12 82 -12q32 0 45.5 8.5t13.5 29.5q0 18 -10 25.5t-32 7.5h-35l11 75q-154 5 -229 93t-75 277q0 194 79.5 286t246.5 92q273 0 308 -239h-148q-15 58 -46 85.5t-114 27.5q-93 0 -134.5 -61.5t-41.5 -203.5q0 -118 39.5 -175
t138.5 -57q76 0 112.5 28t45.5 98h148q-18 -238 -279 -251l-3 -22h10q101 0 101 -91q0 -48 -31.5 -70t-101.5 -22z" />
    <glyph glyph-name="Egrave" unicode="&#xc8;" horiz-adv-x="667" 
d="M75 0v717h529v-123h-381v-157h352v-123h-352v-191h397v-123h-545zM312 926l85 -146h-96l-142 146h153z" />
    <glyph glyph-name="Eacute" unicode="&#xc9;" horiz-adv-x="667" 
d="M75 0v717h529v-123h-381v-157h352v-123h-352v-191h397v-123h-545zM269 780l85 146h154l-143 -146h-96z" />
    <glyph glyph-name="Ecircumflex" unicode="&#xca;" horiz-adv-x="667" 
d="M75 0v717h529v-123h-381v-157h352v-123h-352v-191h397v-123h-545zM160 781l110 145h125l110 -145h-112l-62 79l-59 -79h-112z" />
    <glyph glyph-name="Edieresis" unicode="&#xcb;" horiz-adv-x="667" 
d="M75 0v717h529v-123h-381v-157h352v-123h-352v-191h397v-123h-545zM362 849q0 37 14.5 52.5t56.5 15.5t57 -15.5t15 -52.5t-14.5 -52t-57.5 -15q-42 0 -56.5 15t-14.5 52zM161 849q0 37 14.5 52.5t56.5 15.5t57 -15.5t15 -52.5t-14.5 -52t-57.5 -15q-42 0 -56.5 15
t-14.5 52z" />
    <glyph glyph-name="Igrave" unicode="&#xcc;" horiz-adv-x="278" 
d="M65 0v717h148v-717h-148zM118 926l85 -146h-96l-142 146h153z" />
    <glyph glyph-name="Iacute" unicode="&#xcd;" horiz-adv-x="278" 
d="M65 0v717h148v-717h-148zM75 780l85 146h154l-143 -146h-96z" />
    <glyph glyph-name="Icircumflex" unicode="&#xce;" horiz-adv-x="278" 
d="M65 0v717h148v-717h-148zM-33 781l110 145h125l110 -145h-112l-62 79l-59 -79h-112z" />
    <glyph glyph-name="Idieresis" unicode="&#xcf;" horiz-adv-x="278" 
d="M65 0v717h148v-717h-148zM168 849q0 37 14.5 52.5t56.5 15.5t57 -15.5t15 -52.5t-14.5 -52t-57.5 -15q-42 0 -56.5 15t-14.5 52zM-33 849q0 37 14.5 52.5t56.5 15.5t57 -15.5t15 -52.5t-14.5 -52t-57.5 -15q-42 0 -56.5 15t-14.5 52z" />
    <glyph glyph-name="Eth" unicode="&#xd0;" horiz-adv-x="722" 
d="M75 717h299q169 0 238 -80.5t69 -274.5q0 -88 -13.5 -150.5t-47 -112.5t-95 -74.5t-152.5 -24.5h-298v312h-77v116h77v289zM338 594h-117v-166h162v-116h-162v-189h133q106 0 140.5 49t34.5 189q0 67 -7 109.5t-18 68t-37 37.5t-52.5 15t-76.5 3z" />
    <glyph glyph-name="Ntilde" unicode="&#xd1;" horiz-adv-x="722" 
d="M72 0v717h151l279 -473v473h148v-717h-148l-282 476v-476h-148zM245 787h-62q0 124 104 124q36 0 77 -19t66 -19q22 0 30 9t14 32h64q0 -65 -22.5 -93t-74.5 -28q-38 0 -84 18.5t-67 18.5q-40 0 -45 -43z" />
    <glyph glyph-name="Ograve" unicode="&#xd2;" horiz-adv-x="778" 
d="M43 359q0 94 21 163.5t53 109t79.5 63t91.5 31t99 7.5q57 0 102.5 -8t93 -32t79.5 -64t52.5 -109t20.5 -161q0 -91 -19.5 -159.5t-51 -108.5t-78 -65t-93 -33.5t-103.5 -8.5q-59 0 -107 9t-94 34.5t-77 66.5t-50 108t-19 157zM193 355q0 -77 12 -126t39 -75t61.5 -35
t89.5 -9q35 0 59 4t50.5 18.5t43 40.5t27 74t10.5 116q0 136 -45.5 190t-153.5 54q-104 0 -148.5 -54t-44.5 -198zM368 926l85 -146h-96l-142 146h153z" />
    <glyph glyph-name="Oacute" unicode="&#xd3;" horiz-adv-x="778" 
d="M43 359q0 94 21 163.5t53 109t79.5 63t91.5 31t99 7.5q57 0 102.5 -8t93 -32t79.5 -64t52.5 -109t20.5 -161q0 -91 -19.5 -159.5t-51 -108.5t-78 -65t-93 -33.5t-103.5 -8.5q-59 0 -107 9t-94 34.5t-77 66.5t-50 108t-19 157zM193 355q0 -77 12 -126t39 -75t61.5 -35
t89.5 -9q35 0 59 4t50.5 18.5t43 40.5t27 74t10.5 116q0 136 -45.5 190t-153.5 54q-104 0 -148.5 -54t-44.5 -198zM325 780l85 146h154l-143 -146h-96z" />
    <glyph glyph-name="Ocircumflex" unicode="&#xd4;" horiz-adv-x="778" 
d="M43 359q0 94 21 163.5t53 109t79.5 63t91.5 31t99 7.5q57 0 102.5 -8t93 -32t79.5 -64t52.5 -109t20.5 -161q0 -91 -19.5 -159.5t-51 -108.5t-78 -65t-93 -33.5t-103.5 -8.5q-59 0 -107 9t-94 34.5t-77 66.5t-50 108t-19 157zM193 355q0 -77 12 -126t39 -75t61.5 -35
t89.5 -9q35 0 59 4t50.5 18.5t43 40.5t27 74t10.5 116q0 136 -45.5 190t-153.5 54q-104 0 -148.5 -54t-44.5 -198zM217 781l110 145h125l110 -145h-112l-62 79l-59 -79h-112z" />
    <glyph glyph-name="Otilde" unicode="&#xd5;" horiz-adv-x="778" 
d="M43 359q0 94 21 163.5t53 109t79.5 63t91.5 31t99 7.5q57 0 102.5 -8t93 -32t79.5 -64t52.5 -109t20.5 -161q0 -91 -19.5 -159.5t-51 -108.5t-78 -65t-93 -33.5t-103.5 -8.5q-59 0 -107 9t-94 34.5t-77 66.5t-50 108t-19 157zM193 355q0 -77 12 -126t39 -75t61.5 -35
t89.5 -9q35 0 59 4t50.5 18.5t43 40.5t27 74t10.5 116q0 136 -45.5 190t-153.5 54q-104 0 -148.5 -54t-44.5 -198zM274 787h-62q0 124 104 124q36 0 77 -19t66 -19q22 0 30 9t14 32h64q0 -65 -22.5 -93t-74.5 -28q-38 0 -84 18.5t-67 18.5q-40 0 -45 -43z" />
    <glyph glyph-name="Odieresis" unicode="&#xd6;" horiz-adv-x="778" 
d="M43 359q0 94 21 163.5t53 109t79.5 63t91.5 31t99 7.5q57 0 102.5 -8t93 -32t79.5 -64t52.5 -109t20.5 -161q0 -91 -19.5 -159.5t-51 -108.5t-78 -65t-93 -33.5t-103.5 -8.5q-59 0 -107 9t-94 34.5t-77 66.5t-50 108t-19 157zM193 355q0 -77 12 -126t39 -75t61.5 -35
t89.5 -9q35 0 59 4t50.5 18.5t43 40.5t27 74t10.5 116q0 136 -45.5 190t-153.5 54q-104 0 -148.5 -54t-44.5 -198zM418 849q0 37 14.5 52.5t56.5 15.5t57 -15.5t15 -52.5t-14.5 -52t-57.5 -15q-42 0 -56.5 15t-14.5 52zM217 849q0 37 14.5 52.5t56.5 15.5t57 -15.5t15 -52.5
t-14.5 -52t-57.5 -15q-42 0 -56.5 15t-14.5 52z" />
    <glyph glyph-name="multiply" unicode="&#xd7;" horiz-adv-x="584" 
d="M44 122l165 164l-165 165l83 83l165 -165l164 165l82 -83l-164 -164l165 -165l-83 -83l-165 165l-164 -164z" />
    <glyph glyph-name="Oslash" unicode="&#xd8;" horiz-adv-x="778" 
d="M43 359q0 94 21 163.5t53 109t79.5 63t91.5 31t99 7.5q145 0 227 -60l73 81l67 -61l-78 -86q59 -92 59 -248q0 -91 -19.5 -159.5t-51 -108.5t-78 -65t-93 -33.5t-103.5 -8.5q-143 0 -225 58l-74 -81l-67 61l78 86q-59 91 -59 251zM193 355q0 -79 14 -132l314 348
q-45 36 -135 36q-104 0 -148.5 -54t-44.5 -198zM585 363q0 77 -15 127l-315 -348q41 -32 139 -32q35 0 59 4t51 18.5t43.5 40.5t27 74t10.5 116z" />
    <glyph glyph-name="Ugrave" unicode="&#xd9;" horiz-adv-x="722" 
d="M73 717h148v-378q0 -52 1 -81t6 -58.5t13.5 -43.5t25 -26.5t39.5 -16t57 -3.5q90 0 114 41t24 182v384h148v-474q0 -81 -19.5 -133.5t-59 -79t-86.5 -36.5t-116 -10q-72 0 -122 10.5t-91.5 38t-61.5 80t-20 132.5v472zM340 926l85 -146h-96l-142 146h153z" />
    <glyph glyph-name="Uacute" unicode="&#xda;" horiz-adv-x="722" 
d="M73 717h148v-378q0 -52 1 -81t6 -58.5t13.5 -43.5t25 -26.5t39.5 -16t57 -3.5q90 0 114 41t24 182v384h148v-474q0 -81 -19.5 -133.5t-59 -79t-86.5 -36.5t-116 -10q-72 0 -122 10.5t-91.5 38t-61.5 80t-20 132.5v472zM297 780l85 146h154l-143 -146h-96z" />
    <glyph glyph-name="Ucircumflex" unicode="&#xdb;" horiz-adv-x="722" 
d="M73 717h148v-378q0 -52 1 -81t6 -58.5t13.5 -43.5t25 -26.5t39.5 -16t57 -3.5q90 0 114 41t24 182v384h148v-474q0 -81 -19.5 -133.5t-59 -79t-86.5 -36.5t-116 -10q-72 0 -122 10.5t-91.5 38t-61.5 80t-20 132.5v472zM189 781l110 145h125l110 -145h-112l-62 79l-59 -79
h-112z" />
    <glyph glyph-name="Udieresis" unicode="&#xdc;" horiz-adv-x="722" 
d="M73 717h148v-378q0 -52 1 -81t6 -58.5t13.5 -43.5t25 -26.5t39.5 -16t57 -3.5q90 0 114 41t24 182v384h148v-474q0 -81 -19.5 -133.5t-59 -79t-86.5 -36.5t-116 -10q-72 0 -122 10.5t-91.5 38t-61.5 80t-20 132.5v472zM390 849q0 37 14.5 52.5t56.5 15.5t57 -15.5
t15 -52.5t-14.5 -52t-57.5 -15q-42 0 -56.5 15t-14.5 52zM189 849q0 37 14.5 52.5t56.5 15.5t57 -15.5t15 -52.5t-14.5 -52t-57.5 -15q-42 0 -56.5 15t-14.5 52z" />
    <glyph glyph-name="Yacute" unicode="&#xdd;" horiz-adv-x="667" 
d="M262 0v281q-140 195 -253 436h174q54 -143 156 -302q93 147 150 302h169q-108 -236 -248 -438v-279h-148zM268 780l85 146h154l-143 -146h-96z" />
    <glyph glyph-name="Thorn" unicode="&#xde;" horiz-adv-x="667" 
d="M75 0v717h148v-111h182q114 0 167 -46.5t53 -169.5q0 -61 -13.5 -104.5t-36.5 -69.5t-60.5 -41t-77 -20t-95.5 -5h-119v-150h-148zM325 483h-102v-210h103q30 0 45 0.5t36 4t30.5 10.5t19.5 19.5t14 32.5t4 48q0 59 -28.5 77t-121.5 18z" />
    <glyph glyph-name="germandbls" unicode="&#xdf;" horiz-adv-x="611" 
d="M67 0v474q0 68 7.5 110t30 78t68.5 51.5t119 15.5q113 0 168.5 -41t55.5 -132q0 -39 -10.5 -67.5t-23.5 -40.5t-23.5 -26.5t-10.5 -29.5q0 -17 13 -30t32 -24.5t37.5 -27.5t31.5 -48t13 -78q0 -89 -49.5 -142t-147.5 -53q-31 0 -59 5.5t-41 10.5l-12 5v95q38 -6 76 -6
q94 0 94 85q0 31 -13 51t-32 31t-37.5 23t-31.5 36t-13 62q0 31 10.5 50.5t23.5 28t23.5 27.5t10.5 49q0 45 -21 59t-63 14q-54 0 -70.5 -26t-16.5 -121v-468h-139z" />
    <glyph glyph-name="agrave" unicode="&#xe0;" 
d="M179 367h-131q5 98 59.5 135.5t167.5 37.5q114 0 168.5 -35t54.5 -119v-386h-133v40q-51 -53 -162 -53q-91 0 -131 37.5t-40 108.5q0 81 43 122t110 51l174 27v32q0 36 -20 49.5t-70 13.5t-67.5 -13t-22.5 -48zM359 201v42l-97 -16q-47 -7 -69 -22t-22 -53
q0 -31 18.5 -46.5t63.5 -15.5q60 0 83 28.5t23 82.5zM257 742l85 -146h-96l-142 146h153z" />
    <glyph glyph-name="aacute" unicode="&#xe1;" 
d="M179 367h-131q5 98 59.5 135.5t167.5 37.5q114 0 168.5 -35t54.5 -119v-386h-133v40q-51 -53 -162 -53q-91 0 -131 37.5t-40 108.5q0 81 43 122t110 51l174 27v32q0 36 -20 49.5t-70 13.5t-67.5 -13t-22.5 -48zM359 201v42l-97 -16q-47 -7 -69 -22t-22 -53
q0 -31 18.5 -46.5t63.5 -15.5q60 0 83 28.5t23 82.5zM214 596l85 146h154l-143 -146h-96z" />
    <glyph glyph-name="acircumflex" unicode="&#xe2;" 
d="M179 367h-131q5 98 59.5 135.5t167.5 37.5q114 0 168.5 -35t54.5 -119v-386h-133v40q-51 -53 -162 -53q-91 0 -131 37.5t-40 108.5q0 81 43 122t110 51l174 27v32q0 36 -20 49.5t-70 13.5t-67.5 -13t-22.5 -48zM359 201v42l-97 -16q-47 -7 -69 -22t-22 -53
q0 -31 18.5 -46.5t63.5 -15.5q60 0 83 28.5t23 82.5zM106 597l110 145h125l110 -145h-112l-62 79l-59 -79h-112z" />
    <glyph glyph-name="atilde" unicode="&#xe3;" 
d="M179 367h-131q5 98 59.5 135.5t167.5 37.5q114 0 168.5 -35t54.5 -119v-386h-133v40q-51 -53 -162 -53q-91 0 -131 37.5t-40 108.5q0 81 43 122t110 51l174 27v32q0 36 -20 49.5t-70 13.5t-67.5 -13t-22.5 -48zM359 201v42l-97 -16q-47 -7 -69 -22t-22 -53
q0 -31 18.5 -46.5t63.5 -15.5q60 0 83 28.5t23 82.5zM162 603h-62q0 124 104 124q36 0 77 -19t66 -19q22 0 30 9t14 32h64q0 -65 -22.5 -93t-74.5 -28q-38 0 -84 18.5t-67 18.5q-40 0 -45 -43z" />
    <glyph glyph-name="adieresis" unicode="&#xe4;" 
d="M179 367h-131q5 98 59.5 135.5t167.5 37.5q114 0 168.5 -35t54.5 -119v-386h-133v40q-51 -53 -162 -53q-91 0 -131 37.5t-40 108.5q0 81 43 122t110 51l174 27v32q0 36 -20 49.5t-70 13.5t-67.5 -13t-22.5 -48zM359 201v42l-97 -16q-47 -7 -69 -22t-22 -53
q0 -31 18.5 -46.5t63.5 -15.5q60 0 83 28.5t23 82.5zM307 665q0 37 14.5 52.5t56.5 15.5t57 -15.5t15 -52.5t-14.5 -52t-57.5 -15q-42 0 -56.5 15t-14.5 52zM106 665q0 37 14.5 52.5t56.5 15.5t57 -15.5t15 -52.5t-14.5 -52t-57.5 -15q-42 0 -56.5 15t-14.5 52z" />
    <glyph glyph-name="aring" unicode="&#xe5;" 
d="M179 367h-131q5 98 59.5 135.5t167.5 37.5q114 0 168.5 -35t54.5 -119v-386h-133v40q-51 -53 -162 -53q-91 0 -131 37.5t-40 108.5q0 81 43 122t110 51l174 27v32q0 36 -20 49.5t-70 13.5t-67.5 -13t-22.5 -48zM359 201v42l-97 -16q-47 -7 -69 -22t-22 -53
q0 -31 18.5 -46.5t63.5 -15.5q60 0 83 28.5t23 82.5zM396 675q0 -111 -114 -111t-114 111t114 111t114 -111zM333 675q0 51 -51 51t-51 -51t51 -51t51 51z" />
    <glyph glyph-name="ae" unicode="&#xe6;" horiz-adv-x="889" 
d="M709 151h142q-12 -90 -71.5 -127t-166.5 -37q-151 0 -197 80q-34 -40 -76.5 -60t-121.5 -20q-95 0 -135.5 37t-40.5 108q0 149 153 174l174 27v32q0 36 -20 49.5t-70 13.5t-67.5 -13t-22.5 -48h-131q5 97 59.5 135t169.5 38q123 0 165 -48q58 48 163 48q138 0 190 -70
t52 -245h-352q4 -73 24 -98.5t91 -25.5q43 0 61 9t28 41zM369 201v42l-99 -16q-45 -6 -67 -21.5t-22 -53.5q0 -32 18 -47t63 -15q60 0 83.5 29t23.5 82zM505 313h213q-4 68 -29 90.5t-77 22.5q-60 0 -81.5 -24t-25.5 -89z" />
    <glyph glyph-name="ccedilla" unicode="&#xe7;" 
d="M284 -220q-31 0 -58 5t-39 10l-12 5l8 51q34 -12 82 -12q32 0 45.5 8.5t13.5 29.5q0 18 -10 25.5t-32 7.5h-35l11 78q-67 4 -112 25.5t-68 59.5t-32 81.5t-9 103.5q0 138 55.5 210t201.5 72q112 0 166 -46t65 -145h-139q-9 42 -29 59.5t-70 17.5q-59 0 -83 -32.5
t-24 -130.5q0 -97 23 -129.5t77 -32.5t78.5 22t27.5 64h139q-9 -92 -57.5 -143t-157.5 -56l-4 -25h10q101 0 101 -91q0 -48 -31.5 -70t-101.5 -22z" />
    <glyph glyph-name="egrave" unicode="&#xe8;" 
d="M376 151h142q-12 -88 -70.5 -126t-169.5 -38q-64 0 -108.5 12.5t-78 43.5t-49.5 87t-16 139q0 49 6 86.5t22.5 73.5t44.5 59.5t74.5 37.5t110.5 14q137 0 188.5 -70t51.5 -245h-355q4 -74 26.5 -99t81.5 -25q42 0 65.5 10.5t33.5 39.5zM170 313h215q-4 68 -29.5 90.5
t-78.5 22.5q-60 0 -81.5 -24t-25.5 -89zM257 742l85 -146h-96l-142 146h153z" />
    <glyph glyph-name="eacute" unicode="&#xe9;" 
d="M376 151h142q-12 -88 -70.5 -126t-169.5 -38q-64 0 -108.5 12.5t-78 43.5t-49.5 87t-16 139q0 49 6 86.5t22.5 73.5t44.5 59.5t74.5 37.5t110.5 14q137 0 188.5 -70t51.5 -245h-355q4 -74 26.5 -99t81.5 -25q42 0 65.5 10.5t33.5 39.5zM170 313h215q-4 68 -29.5 90.5
t-78.5 22.5q-60 0 -81.5 -24t-25.5 -89zM214 596l85 146h154l-143 -146h-96z" />
    <glyph glyph-name="ecircumflex" unicode="&#xea;" 
d="M376 151h142q-12 -88 -70.5 -126t-169.5 -38q-64 0 -108.5 12.5t-78 43.5t-49.5 87t-16 139q0 49 6 86.5t22.5 73.5t44.5 59.5t74.5 37.5t110.5 14q137 0 188.5 -70t51.5 -245h-355q4 -74 26.5 -99t81.5 -25q42 0 65.5 10.5t33.5 39.5zM170 313h215q-4 68 -29.5 90.5
t-78.5 22.5q-60 0 -81.5 -24t-25.5 -89zM106 597l110 145h125l110 -145h-112l-62 79l-59 -79h-112z" />
    <glyph glyph-name="edieresis" unicode="&#xeb;" 
d="M376 151h142q-12 -88 -70.5 -126t-169.5 -38q-64 0 -108.5 12.5t-78 43.5t-49.5 87t-16 139q0 49 6 86.5t22.5 73.5t44.5 59.5t74.5 37.5t110.5 14q137 0 188.5 -70t51.5 -245h-355q4 -74 26.5 -99t81.5 -25q42 0 65.5 10.5t33.5 39.5zM170 313h215q-4 68 -29.5 90.5
t-78.5 22.5q-60 0 -81.5 -24t-25.5 -89zM307 665q0 37 14.5 52.5t56.5 15.5t57 -15.5t15 -52.5t-14.5 -52t-57.5 -15q-42 0 -56.5 15t-14.5 52zM106 665q0 37 14.5 52.5t56.5 15.5t57 -15.5t15 -52.5t-14.5 -52t-57.5 -15q-42 0 -56.5 15t-14.5 52z" />
    <glyph glyph-name="igrave" unicode="&#xec;" horiz-adv-x="278" 
d="M69 0v527h139v-527h-139zM118 742l85 -146h-96l-142 146h153z" />
    <glyph glyph-name="iacute" unicode="&#xed;" horiz-adv-x="278" 
d="M69 0v527h139v-527h-139zM75 596l85 146h154l-143 -146h-96z" />
    <glyph glyph-name="icircumflex" unicode="&#xee;" horiz-adv-x="278" 
d="M69 0v527h139v-527h-139zM-33 597l110 145h125l110 -145h-112l-62 79l-59 -79h-112z" />
    <glyph glyph-name="idieresis" unicode="&#xef;" horiz-adv-x="278" 
d="M69 0v527h139v-527h-139zM168 665q0 37 14.5 52.5t56.5 15.5t57 -15.5t15 -52.5t-14.5 -52t-57.5 -15q-42 0 -56.5 15t-14.5 52zM-33 665q0 37 14.5 52.5t56.5 15.5t57 -15.5t15 -52.5t-14.5 -52t-57.5 -15q-42 0 -56.5 15t-14.5 52z" />
    <glyph glyph-name="eth" unicode="&#xf0;" horiz-adv-x="611" 
d="M305 -13q-270 0 -270 273q0 133 64 197t193 64q66 0 103 -36q-19 37 -35 59t-48 50l-115 -51l-25 59l86 39l-62 38l43 69q77 -35 119 -62l98 43l26 -61l-63 -28q82 -77 119 -155t37 -195q0 -158 -66.5 -230.5t-203.5 -72.5zM178 252q0 -83 31 -117t90 -34q133 0 133 154
q0 74 -29.5 113t-97.5 39t-97.5 -39.5t-29.5 -115.5z" />
    <glyph glyph-name="ntilde" unicode="&#xf1;" horiz-adv-x="611" 
d="M405 0v303q0 25 -0.5 37.5t-3 30t-8 25t-15.5 16t-25.5 11.5t-37.5 3q-70 0 -90 -37.5t-20 -138.5v-250h-139v527h132v-68q31 42 69.5 61.5t106.5 19.5q99 0 134.5 -47.5t35.5 -170.5v-322h-139zM191 603h-62q0 124 104 124q36 0 77 -19t66 -19q22 0 30 9t14 32h64
q0 -65 -22.5 -93t-74.5 -28q-38 0 -84 18.5t-67 18.5q-40 0 -45 -43z" />
    <glyph glyph-name="ograve" unicode="&#xf2;" horiz-adv-x="611" 
d="M576 264q0 -277 -272 -277q-269 0 -269 277t270 277q271 0 271 -277zM433 265q0 89 -28.5 125.5t-99.5 36.5q-70 0 -98.5 -36.5t-28.5 -126.5q0 -91 28.5 -127t99.5 -36q70 0 98.5 36t28.5 128zM284 742l85 -146h-96l-142 146h153z" />
    <glyph glyph-name="oacute" unicode="&#xf3;" horiz-adv-x="611" 
d="M576 264q0 -277 -272 -277q-269 0 -269 277t270 277q271 0 271 -277zM433 265q0 89 -28.5 125.5t-99.5 36.5q-70 0 -98.5 -36.5t-28.5 -126.5q0 -91 28.5 -127t99.5 -36q70 0 98.5 36t28.5 128zM241 596l85 146h154l-143 -146h-96z" />
    <glyph glyph-name="ocircumflex" unicode="&#xf4;" horiz-adv-x="611" 
d="M576 264q0 -277 -272 -277q-269 0 -269 277t270 277q271 0 271 -277zM433 265q0 89 -28.5 125.5t-99.5 36.5q-70 0 -98.5 -36.5t-28.5 -126.5q0 -91 28.5 -127t99.5 -36q70 0 98.5 36t28.5 128zM133 597l110 145h125l110 -145h-112l-62 79l-59 -79h-112z" />
    <glyph glyph-name="otilde" unicode="&#xf5;" horiz-adv-x="611" 
d="M576 264q0 -277 -272 -277q-269 0 -269 277t270 277q271 0 271 -277zM433 265q0 89 -28.5 125.5t-99.5 36.5q-70 0 -98.5 -36.5t-28.5 -126.5q0 -91 28.5 -127t99.5 -36q70 0 98.5 36t28.5 128zM190 603h-62q0 124 104 124q36 0 77 -19t66 -19q22 0 30 9t14 32h64
q0 -65 -22.5 -93t-74.5 -28q-38 0 -84 18.5t-67 18.5q-40 0 -45 -43z" />
    <glyph glyph-name="odieresis" unicode="&#xf6;" horiz-adv-x="611" 
d="M576 264q0 -277 -272 -277q-269 0 -269 277t270 277q271 0 271 -277zM433 265q0 89 -28.5 125.5t-99.5 36.5q-70 0 -98.5 -36.5t-28.5 -126.5q0 -91 28.5 -127t99.5 -36q70 0 98.5 36t28.5 128zM334 665q0 37 14.5 52.5t56.5 15.5t57 -15.5t15 -52.5t-14.5 -52t-57.5 -15
q-42 0 -56.5 15t-14.5 52zM133 665q0 37 14.5 52.5t56.5 15.5t57 -15.5t15 -52.5t-14.5 -52t-57.5 -15q-42 0 -56.5 15t-14.5 52z" />
    <glyph glyph-name="divide" unicode="&#xf7;" horiz-adv-x="584" 
d="M40 228v117h503v-117h-503zM212 101q0 41 16 58t63 17t63.5 -17t16.5 -58t-16.5 -57.5t-63.5 -16.5t-63 16.5t-16 57.5zM212 472q0 41 16 58t63 17t63.5 -17t16.5 -58t-16.5 -57.5t-63.5 -16.5t-63 16.5t-16 57.5z" />
    <glyph glyph-name="oslash" unicode="&#xf8;" horiz-adv-x="611" 
d="M576 264q0 -277 -272 -277q-100 0 -162 38l-60 -65l-61 52l62 67q-48 67 -48 185q0 277 270 277q101 0 166 -41l59 64l60 -54l-61 -66q47 -67 47 -180zM178 264q0 -45 6 -75l201 218q-32 20 -80 20q-70 0 -98.5 -36.5t-28.5 -126.5zM433 265q0 37 -5 69l-200 -216
q29 -17 78 -17q70 0 98.5 36t28.5 128z" />
    <glyph glyph-name="ugrave" unicode="&#xf9;" horiz-adv-x="611" 
d="M412 0v56q-43 -69 -163 -69q-98 0 -140 43.5t-42 154.5v342h139v-333q0 -53 19.5 -73t72.5 -20q57 0 81.5 25.5t24.5 96.5v304h139v-527h-131zM284 742l85 -146h-96l-142 146h153z" />
    <glyph glyph-name="uacute" unicode="&#xfa;" horiz-adv-x="611" 
d="M412 0v56q-43 -69 -163 -69q-98 0 -140 43.5t-42 154.5v342h139v-333q0 -53 19.5 -73t72.5 -20q57 0 81.5 25.5t24.5 96.5v304h139v-527h-131zM241 596l85 146h154l-143 -146h-96z" />
    <glyph glyph-name="ucircumflex" unicode="&#xfb;" horiz-adv-x="611" 
d="M412 0v56q-43 -69 -163 -69q-98 0 -140 43.5t-42 154.5v342h139v-333q0 -53 19.5 -73t72.5 -20q57 0 81.5 25.5t24.5 96.5v304h139v-527h-131zM133 597l110 145h125l110 -145h-112l-62 79l-59 -79h-112z" />
    <glyph glyph-name="udieresis" unicode="&#xfc;" horiz-adv-x="611" 
d="M412 0v56q-43 -69 -163 -69q-98 0 -140 43.5t-42 154.5v342h139v-333q0 -53 19.5 -73t72.5 -20q57 0 81.5 25.5t24.5 96.5v304h139v-527h-131zM334 665q0 37 14.5 52.5t56.5 15.5t57 -15.5t15 -52.5t-14.5 -52t-57.5 -15q-42 0 -56.5 15t-14.5 52zM133 665
q0 37 14.5 52.5t56.5 15.5t57 -15.5t15 -52.5t-14.5 -52t-57.5 -15q-42 0 -56.5 15t-14.5 52z" />
    <glyph glyph-name="yacute" unicode="&#xfd;" 
d="M9 527h153q39 -192 117 -384l115 384h146l-188 -527q-21 -59 -32.5 -87.5t-28.5 -58t-35.5 -41t-45 -18.5t-65.5 -7l-70 4v109q13 -2 23 -2q47 0 71.5 15.5t36.5 71.5q-120 263 -197 541zM214 596l85 146h154l-143 -146h-96z" />
    <glyph glyph-name="thorn" unicode="&#xfe;" horiz-adv-x="611" 
d="M64 717h139v-246q20 22 34 34t47.5 23.5t79.5 11.5q107 0 159.5 -62t52.5 -216q0 -136 -48.5 -205.5t-168.5 -69.5q-61 0 -94 13t-62 46v-250h-139v921zM198 255q0 -84 24.5 -119t94.5 -35q69 0 92.5 35.5t23.5 126.5q0 93 -23.5 128t-88.5 35q-68 0 -95.5 -37
t-27.5 -134z" />
    <glyph glyph-name="ydieresis" unicode="&#xff;" 
d="M9 527h153q39 -192 117 -384l115 384h146l-188 -527q-21 -59 -32.5 -87.5t-28.5 -58t-35.5 -41t-45 -18.5t-65.5 -7l-70 4v109q13 -2 23 -2q47 0 71.5 15.5t36.5 71.5q-120 263 -197 541zM307 665q0 37 14.5 52.5t56.5 15.5t57 -15.5t15 -52.5t-14.5 -52t-57.5 -15
q-42 0 -56.5 15t-14.5 52zM106 665q0 37 14.5 52.5t56.5 15.5t57 -15.5t15 -52.5t-14.5 -52t-57.5 -15q-42 0 -56.5 15t-14.5 52z" />
    <glyph glyph-name="Amacron" unicode="&#x100;" horiz-adv-x="722" 
d="M708 0h-162q-13 50 -43 152h-291l-42 -152h-157q114 381 264 717h166q158 -351 265 -717zM358 553q-57 -128 -107 -278h213q-49 146 -106 278zM193 790v79h333v-79h-333z" />
    <glyph glyph-name="amacron" unicode="&#x101;" 
d="M179 367h-131q5 98 59.5 135.5t167.5 37.5q114 0 168.5 -35t54.5 -119v-386h-133v40q-51 -53 -162 -53q-91 0 -131 37.5t-40 108.5q0 81 43 122t110 51l174 27v32q0 36 -20 49.5t-70 13.5t-67.5 -13t-22.5 -48zM359 201v42l-97 -16q-47 -7 -69 -22t-22 -53
q0 -31 18.5 -46.5t63.5 -15.5q60 0 83 28.5t23 82.5zM111 606v79h333v-79h-333z" />
    <glyph glyph-name="Abreve" unicode="&#x102;" horiz-adv-x="722" 
d="M708 0h-162q-13 50 -43 152h-291l-42 -152h-157q114 381 264 717h166q158 -351 265 -717zM358 553q-57 -128 -107 -278h213q-49 146 -106 278zM455 927h66q-6 -73 -43 -109t-124 -36q-85 0 -119 35t-40 110h66q7 -42 24 -56t76 -14q50 0 69 13.5t25 56.5z" />
    <glyph glyph-name="abreve" unicode="&#x103;" 
d="M179 367h-131q5 98 59.5 135.5t167.5 37.5q114 0 168.5 -35t54.5 -119v-386h-133v40q-51 -53 -162 -53q-91 0 -131 37.5t-40 108.5q0 81 43 122t110 51l174 27v32q0 36 -20 49.5t-70 13.5t-67.5 -13t-22.5 -48zM359 201v42l-97 -16q-47 -7 -69 -22t-22 -53
q0 -31 18.5 -46.5t63.5 -15.5q60 0 83 28.5t23 82.5zM375 743h66q-6 -73 -43 -109t-124 -36q-85 0 -119 35t-40 110h66q7 -42 24 -56t76 -14q50 0 69 13.5t25 56.5z" />
    <glyph glyph-name="Aogonek" unicode="&#x104;" horiz-adv-x="722" 
d="M708 0q-5 -1 -13.5 -3t-29.5 -11t-37 -20t-29.5 -30t-13.5 -42q0 -53 56 -53q12 0 29 2.5t28 5.5l10 3v-53q-32 -20 -102 -20q-124 0 -124 92q0 76 65 129h-1q-13 50 -43 152h-291l-42 -152h-157q114 381 264 717h166q158 -351 265 -717zM358 553q-57 -128 -107 -278h213
q-49 146 -106 278z" />
    <glyph glyph-name="aogonek" unicode="&#x105;" 
d="M179 367h-131q5 98 59.5 135.5t167.5 37.5q114 0 168.5 -35t54.5 -119v-386q-5 -1 -12 -3.5t-26.5 -12t-34 -20.5t-26.5 -30t-12 -40q0 -53 56 -53q12 0 29 2.5t28 5.5l10 3v-53q-32 -20 -102 -20q-124 0 -124 92q0 35 17 65t33 43t31 21v40q-51 -53 -162 -53
q-91 0 -131 37.5t-40 108.5q0 81 43 122t110 51l174 27v32q0 36 -20 49.5t-70 13.5t-67.5 -13t-22.5 -48zM359 201v42l-97 -16q-47 -7 -69 -22t-22 -53q0 -31 18.5 -46.5t63.5 -15.5q60 0 83 28.5t23 82.5z" />
    <glyph glyph-name="Cacute" unicode="&#x106;" horiz-adv-x="722" 
d="M531 236h148q-18 -252 -309 -252q-165 0 -245 88t-80 283q0 194 79.5 286t246.5 92q273 0 308 -239h-148q-15 58 -46 85.5t-114 27.5q-93 0 -134.5 -61.5t-41.5 -203.5q0 -118 39.5 -175t138.5 -57q76 0 112.5 28t45.5 98zM291 780l85 146h154l-143 -146h-96z" />
    <glyph glyph-name="cacute" unicode="&#x107;" 
d="M525 349h-1h-138q-9 42 -29 59.5t-70 17.5q-59 0 -83 -32.5t-24 -130.5q0 -97 23 -129.5t77 -32.5t78.5 22t27.5 64h139q-9 -97 -62 -148.5t-176 -51.5q-76 0 -127 20t-77 59t-36 84t-10 108q0 138 55.5 210t201.5 72q112 0 166 -46t65 -145zM208 596l85 146h154
l-143 -146h-96z" />
    <glyph glyph-name="Ccircumflex" unicode="&#x108;" horiz-adv-x="722" 
d="M531 236h148q-18 -252 -309 -252q-165 0 -245 88t-80 283q0 194 79.5 286t246.5 92q273 0 308 -239h-148q-15 58 -46 85.5t-114 27.5q-93 0 -134.5 -61.5t-41.5 -203.5q0 -118 39.5 -175t138.5 -57q76 0 112.5 28t45.5 98zM198 781l110 145h125l110 -145h-112l-62 79
l-59 -79h-112z" />
    <glyph glyph-name="ccircumflex" unicode="&#x109;" 
d="M525 349h-1h-138q-9 42 -29 59.5t-70 17.5q-59 0 -83 -32.5t-24 -130.5q0 -97 23 -129.5t77 -32.5t78.5 22t27.5 64h139q-9 -97 -62 -148.5t-176 -51.5q-76 0 -127 20t-77 59t-36 84t-10 108q0 138 55.5 210t201.5 72q112 0 166 -46t65 -145zM115 597l110 145h125
l110 -145h-112l-62 79l-59 -79h-112z" />
    <glyph glyph-name="Cdotaccent" unicode="&#x10a;" horiz-adv-x="722" 
d="M531 236h148q-18 -252 -309 -252q-165 0 -245 88t-80 283q0 194 79.5 286t246.5 92q273 0 308 -239h-148q-15 58 -46 85.5t-114 27.5q-93 0 -134.5 -61.5t-41.5 -203.5q0 -118 39.5 -175t138.5 -57q76 0 112.5 28t45.5 98zM291 840q0 41 16 58t63 17t63.5 -17t16.5 -58
t-16.5 -57.5t-63.5 -16.5t-63 16.5t-16 57.5z" />
    <glyph glyph-name="cdotaccent" unicode="&#x10b;" 
d="M525 349h-1h-138q-9 42 -29 59.5t-70 17.5q-59 0 -83 -32.5t-24 -130.5q0 -97 23 -129.5t77 -32.5t78.5 22t27.5 64h139q-9 -97 -62 -148.5t-176 -51.5q-76 0 -127 20t-77 59t-36 84t-10 108q0 138 55.5 210t201.5 72q112 0 166 -46t65 -145zM208 656q0 41 16 58t63 17
t63.5 -17t16.5 -58t-16.5 -57.5t-63.5 -16.5t-63 16.5t-16 57.5z" />
    <glyph glyph-name="Ccaron" unicode="&#x10c;" horiz-adv-x="722" 
d="M531 236h148q-18 -252 -309 -252q-165 0 -245 88t-80 283q0 194 79.5 286t246.5 92q273 0 308 -239h-148q-15 58 -46 85.5t-114 27.5q-93 0 -134.5 -61.5t-41.5 -203.5q0 -118 39.5 -175t138.5 -57q76 0 112.5 28t45.5 98zM543 927l-110 -146h-126l-109 146h112l61 -79
l60 79h112z" />
    <glyph glyph-name="ccaron" unicode="&#x10d;" 
d="M525 349h-1h-138q-9 42 -29 59.5t-70 17.5q-59 0 -83 -32.5t-24 -130.5q0 -97 23 -129.5t77 -32.5t78.5 22t27.5 64h139q-9 -97 -62 -148.5t-176 -51.5q-76 0 -127 20t-77 59t-36 84t-10 108q0 138 55.5 210t201.5 72q112 0 166 -46t65 -145zM460 743l-110 -146h-126
l-109 146h112l61 -79l60 79h112z" />
    <glyph glyph-name="Dcaron" unicode="&#x10e;" horiz-adv-x="722" 
d="M75 717h299q169 0 238 -80.5t69 -274.5q0 -188 -72 -275t-236 -87h-298v717zM338 594h-115v-471h131q106 0 141.5 49.5t35.5 188.5q0 53 -2 85.5t-10 61t-20 43.5t-34.5 25.5t-52 14t-74.5 3.5zM523 927l-110 -146h-126l-109 146h112l61 -79l60 79h112z" />
    <glyph glyph-name="dcaron" unicode="&#x10f;" horiz-adv-x="611" 
d="M549 0h-134v50q-24 -37 -61.5 -50t-95.5 -13q-118 1 -170 72t-52 206q0 147 56 211t164 64q109 0 154 -59v236h139v-717zM414 264q0 94 -26 128t-88 34q-70 0 -95.5 -36t-25.5 -123q0 -99 27 -132.5t91 -33.5q63 0 90 32.5t27 130.5zM599 561l35 156h134l-93 -156h-76z
" />
    <glyph glyph-name="Dcroat" unicode="&#x110;" horiz-adv-x="722" 
d="M75 717h299q169 0 238 -80.5t69 -274.5q0 -88 -13.5 -150.5t-47 -112.5t-95 -74.5t-152.5 -24.5h-298v312h-77v116h77v289zM338 594h-117v-166h162v-116h-162v-189h133q106 0 140.5 49t34.5 189q0 67 -7 109.5t-18 68t-37 37.5t-52.5 15t-76.5 3z" />
    <glyph glyph-name="dcroat" unicode="&#x111;" horiz-adv-x="611" 
d="M414 264q0 94 -26 128t-88 34q-70 0 -95.5 -36t-25.5 -123q0 -99 27 -132.5t91 -33.5q63 0 90 32.5t27 130.5zM549 0h-134v50q-26 -39 -61.5 -51t-95.5 -12q-118 1 -170 72t-52 206q0 147 56 211t164 64q109 0 154 -59v95h-132v79h132v62h139v-62h62v-79h-62v-576z" />
    <glyph glyph-name="Emacron" unicode="&#x112;" horiz-adv-x="667" 
d="M75 0v717h529v-123h-381v-157h352v-123h-352v-191h397v-123h-545zM177 790v79h333v-79h-333z" />
    <glyph glyph-name="emacron" unicode="&#x113;" 
d="M376 151h142q-12 -88 -70.5 -126t-169.5 -38q-64 0 -108.5 12.5t-78 43.5t-49.5 87t-16 139q0 49 6 86.5t22.5 73.5t44.5 59.5t74.5 37.5t110.5 14q137 0 188.5 -70t51.5 -245h-355q4 -74 26.5 -99t81.5 -25q42 0 65.5 10.5t33.5 39.5zM170 313h215q-4 68 -29.5 90.5
t-78.5 22.5q-60 0 -81.5 -24t-25.5 -89zM111 606v79h333v-79h-333z" />
    <glyph glyph-name="Ebreve" unicode="&#x114;" horiz-adv-x="667" 
d="M75 0v717h529v-123h-381v-157h352v-123h-352v-191h397v-123h-545zM440 927h66q-6 -73 -43 -109t-124 -36q-85 0 -119 35t-40 110h66q7 -42 24 -56t76 -14q50 0 69 13.5t25 56.5z" />
    <glyph glyph-name="ebreve" unicode="&#x115;" 
d="M376 151h142q-12 -88 -70.5 -126t-169.5 -38q-64 0 -108.5 12.5t-78 43.5t-49.5 87t-16 139q0 49 6 86.5t22.5 73.5t44.5 59.5t74.5 37.5t110.5 14q137 0 188.5 -70t51.5 -245h-355q4 -74 26.5 -99t81.5 -25q42 0 65.5 10.5t33.5 39.5zM170 313h215q-4 68 -29.5 90.5
t-78.5 22.5q-60 0 -81.5 -24t-25.5 -89zM375 743h66q-6 -73 -43 -109t-124 -36q-85 0 -119 35t-40 110h66q7 -42 24 -56t76 -14q50 0 69 13.5t25 56.5z" />
    <glyph glyph-name="Edotaccent" unicode="&#x116;" horiz-adv-x="667" 
d="M75 0v717h529v-123h-381v-157h352v-123h-352v-191h397v-123h-545zM264 840q0 41 16 58t63 17t63.5 -17t16.5 -58t-16.5 -57.5t-63.5 -16.5t-63 16.5t-16 57.5z" />
    <glyph glyph-name="edotaccent" unicode="&#x117;" 
d="M376 151h142q-12 -88 -70.5 -126t-169.5 -38q-64 0 -108.5 12.5t-78 43.5t-49.5 87t-16 139q0 49 6 86.5t22.5 73.5t44.5 59.5t74.5 37.5t110.5 14q137 0 188.5 -70t51.5 -245h-355q4 -74 26.5 -99t81.5 -25q42 0 65.5 10.5t33.5 39.5zM170 313h215q-4 68 -29.5 90.5
t-78.5 22.5q-60 0 -81.5 -24t-25.5 -89zM198 656q0 41 16 58t63 17t63.5 -17t16.5 -58t-16.5 -57.5t-63.5 -16.5t-63 16.5t-16 57.5z" />
    <glyph glyph-name="Eogonek" unicode="&#x118;" horiz-adv-x="667" 
d="M75 0v717h529v-123h-381v-157h352v-123h-352v-191h397v-123h-18q-4 -1 -11 -4t-25.5 -13t-32 -21t-25 -29.5t-11.5 -38.5q0 -53 56 -53q12 0 29 2.5t28 5.5l10 3v-53q-32 -20 -102 -20q-124 0 -124 92q0 35 16.5 64.5t32 42.5t31.5 22h-399z" />
    <glyph glyph-name="eogonek" unicode="&#x119;" 
d="M376 151h142q-13 -93 -77 -130q-26 -15 -53 -52t-27 -75q0 -53 56 -53q12 0 29 2.5t28 5.5l10 3v-53q-32 -20 -102 -20q-124 0 -124 92q0 70 62 118q-26 -2 -42 -2q-64 0 -108.5 12.5t-78 43.5t-49.5 87t-16 139q0 49 6 86.5t22.5 73.5t44.5 59.5t74.5 37.5t110.5 14
q137 0 188.5 -70t51.5 -245h-355q4 -74 26.5 -99t81.5 -25q42 0 65.5 10.5t33.5 39.5zM170 313h215q-4 68 -29.5 90.5t-78.5 22.5q-60 0 -81.5 -24t-25.5 -89z" />
    <glyph glyph-name="Ecaron" unicode="&#x11a;" horiz-adv-x="667" 
d="M75 0v717h529v-123h-381v-157h352v-123h-352v-191h397v-123h-545zM516 927l-110 -146h-126l-109 146h112l61 -79l60 79h112z" />
    <glyph glyph-name="ecaron" unicode="&#x11b;" 
d="M376 151h142q-12 -88 -70.5 -126t-169.5 -38q-64 0 -108.5 12.5t-78 43.5t-49.5 87t-16 139q0 49 6 86.5t22.5 73.5t44.5 59.5t74.5 37.5t110.5 14q137 0 188.5 -70t51.5 -245h-355q4 -74 26.5 -99t81.5 -25q42 0 65.5 10.5t33.5 39.5zM170 313h215q-4 68 -29.5 90.5
t-78.5 22.5q-60 0 -81.5 -24t-25.5 -89zM450 743l-110 -146h-126l-109 146h112l61 -79l60 79h112z" />
    <glyph glyph-name="Gcircumflex" unicode="&#x11c;" horiz-adv-x="778" 
d="M732 385v-84q0 -170 -86.5 -243.5t-249.5 -73.5q-58 0 -105.5 9t-95 34.5t-80 66t-52.5 108.5t-20 157q0 94 22 163.5t55.5 109t82.5 63t94 31t99 7.5q305 0 325 -239h-148q-7 56 -45.5 84.5t-127.5 28.5q-108 0 -157.5 -53.5t-49.5 -195.5q0 -76 13.5 -126t41.5 -76
t62.5 -36t86.5 -10q107 0 147 35t40 117h-166v123h314zM226 781l110 145h125l110 -145h-112l-62 79l-59 -79h-112z" />
    <glyph glyph-name="gcircumflex" unicode="&#x11d;" horiz-adv-x="611" 
d="M53 -55h154q2 -13 5.5 -20.5t13 -17t29.5 -14t51 -4.5q65 0 85 25.5t20 94.5v49q-43 -59 -145 -59q-115 0 -171 63.5t-56 206.5q0 141 54.5 206t163.5 65q120 0 161 -70v57h132v-491q0 -37 -1.5 -60t-7 -52.5t-15.5 -47.5t-29 -37t-46 -29.5t-66.5 -17t-91.5 -6.5
q-116 0 -177 36t-63 123zM182 267q0 -86 23.5 -120t87.5 -34q67 0 93 36.5t26 122.5q0 85 -26 119.5t-94 34.5q-60 0 -85 -33t-25 -126zM133 597l110 145h125l110 -145h-112l-62 79l-59 -79h-112z" />
    <glyph glyph-name="Gbreve" unicode="&#x11e;" horiz-adv-x="778" 
d="M732 385v-84q0 -170 -86.5 -243.5t-249.5 -73.5q-58 0 -105.5 9t-95 34.5t-80 66t-52.5 108.5t-20 157q0 94 22 163.5t55.5 109t82.5 63t94 31t99 7.5q305 0 325 -239h-148q-7 56 -45.5 84.5t-127.5 28.5q-108 0 -157.5 -53.5t-49.5 -195.5q0 -76 13.5 -126t41.5 -76
t62.5 -36t86.5 -10q107 0 147 35t40 117h-166v123h314zM496 927h66q-6 -73 -43 -109t-124 -36q-85 0 -119 35t-40 110h66q7 -42 24 -56t76 -14q50 0 69 13.5t25 56.5z" />
    <glyph glyph-name="gbreve" unicode="&#x11f;" horiz-adv-x="611" 
d="M53 -55h154q2 -13 5.5 -20.5t13 -17t29.5 -14t51 -4.5q65 0 85 25.5t20 94.5v49q-43 -59 -145 -59q-115 0 -171 63.5t-56 206.5q0 141 54.5 206t163.5 65q120 0 161 -70v57h132v-491q0 -37 -1.5 -60t-7 -52.5t-15.5 -47.5t-29 -37t-46 -29.5t-66.5 -17t-91.5 -6.5
q-116 0 -177 36t-63 123zM182 267q0 -86 23.5 -120t87.5 -34q67 0 93 36.5t26 122.5q0 85 -26 119.5t-94 34.5q-60 0 -85 -33t-25 -126zM402 743h66q-6 -73 -43 -109t-124 -36q-85 0 -119 35t-40 110h66q7 -42 24 -56t76 -14q50 0 69 13.5t25 56.5z" />
    <glyph glyph-name="Gdotaccent" unicode="&#x120;" horiz-adv-x="778" 
d="M732 385v-84q0 -170 -86.5 -243.5t-249.5 -73.5q-58 0 -105.5 9t-95 34.5t-80 66t-52.5 108.5t-20 157q0 94 22 163.5t55.5 109t82.5 63t94 31t99 7.5q305 0 325 -239h-148q-7 56 -45.5 84.5t-127.5 28.5q-108 0 -157.5 -53.5t-49.5 -195.5q0 -76 13.5 -126t41.5 -76
t62.5 -36t86.5 -10q107 0 147 35t40 117h-166v123h314zM319 840q0 41 16 58t63 17t63.5 -17t16.5 -58t-16.5 -57.5t-63.5 -16.5t-63 16.5t-16 57.5z" />
    <glyph glyph-name="gdotaccent" unicode="&#x121;" horiz-adv-x="611" 
d="M53 -55h154q2 -13 5.5 -20.5t13 -17t29.5 -14t51 -4.5q65 0 85 25.5t20 94.5v49q-43 -59 -145 -59q-115 0 -171 63.5t-56 206.5q0 141 54.5 206t163.5 65q120 0 161 -70v57h132v-491q0 -37 -1.5 -60t-7 -52.5t-15.5 -47.5t-29 -37t-46 -29.5t-66.5 -17t-91.5 -6.5
q-116 0 -177 36t-63 123zM182 267q0 -86 23.5 -120t87.5 -34q67 0 93 36.5t26 122.5q0 85 -26 119.5t-94 34.5q-60 0 -85 -33t-25 -126zM226 656q0 41 16 58t63 17t63.5 -17t16.5 -58t-16.5 -57.5t-63.5 -16.5t-63 16.5t-16 57.5z" />
    <glyph glyph-name="Gcommaaccent" unicode="&#x122;" horiz-adv-x="778" 
d="M732 385v-84q0 -170 -86.5 -243.5t-249.5 -73.5q-58 0 -105.5 9t-95 34.5t-80 66t-52.5 108.5t-20 157q0 94 22 163.5t55.5 109t82.5 63t94 31t99 7.5q305 0 325 -239h-148q-7 56 -45.5 84.5t-127.5 28.5q-108 0 -157.5 -53.5t-49.5 -195.5q0 -76 13.5 -126t41.5 -76
t62.5 -36t86.5 -10q107 0 147 35t40 117h-166v123h314zM294 -203l35 156h134l-93 -156h-76z" />
    <glyph glyph-name="gcommaaccent" unicode="&#x123;" horiz-adv-x="611" 
d="M398 747l-35 -156h-134l93 156h76zM53 -55h154q2 -13 5.5 -20.5t13 -17t29.5 -14t51 -4.5q65 0 85 25.5t20 94.5v49q-43 -59 -145 -59q-115 0 -171 63.5t-56 206.5q0 141 54.5 206t163.5 65q120 0 161 -70v57h132v-491q0 -37 -1.5 -60t-7 -52.5t-15.5 -47.5t-29 -37
t-46 -29.5t-66.5 -17t-91.5 -6.5q-116 0 -177 36t-63 123zM182 267q0 -86 23.5 -120t87.5 -34q67 0 93 36.5t26 122.5q0 85 -26 119.5t-94 34.5q-60 0 -85 -33t-25 -126z" />
    <glyph glyph-name="Hcircumflex" unicode="&#x124;" horiz-adv-x="722" 
d="M72 0v717h148v-276h281v276h148v-717h-148v318h-281v-318h-148zM188 781l110 145h125l110 -145h-112l-62 79l-59 -79h-112z" />
    <glyph glyph-name="hcircumflex" unicode="&#x125;" horiz-adv-x="611" 
d="M205 717v-238q39 61 150 61q113 0 151 -55t38 -188v-297h-139v272q0 45 -1 63.5t-5 41.5t-13.5 30.5t-26 13t-43.5 5.5q-67 0 -89 -29.5t-22 -107.5v-289h-139v717h139zM133 781l110 145h125l110 -145h-112l-62 79l-59 -79h-112z" />
    <glyph glyph-name="Hbar" unicode="&#x126;" horiz-adv-x="722" 
d="M0 527v79h72v111h148v-111h281v111h148v-111h73v-79h-73v-527h-148v318h-281v-318h-148v527h-72zM220 441h281v86h-281v-86z" />
    <glyph glyph-name="hbar" unicode="&#x127;" horiz-adv-x="611" 
d="M205 717v-62h128v-79h-128v-97q39 61 150 61q113 0 151 -55t38 -188v-297h-139v272q0 45 -1 63.5t-5 41.5t-13.5 30.5t-26 13t-43.5 5.5q-67 0 -89 -29.5t-22 -107.5v-289h-139v576h-66v79h66v62h139z" />
    <glyph glyph-name="Itilde" unicode="&#x128;" horiz-adv-x="278" 
d="M65 0v717h148v-717h-148zM24 787h-62q0 124 104 124q36 0 77 -19t66 -19q22 0 30 9t14 32h64q0 -65 -22.5 -93t-74.5 -28q-38 0 -84 18.5t-67 18.5q-40 0 -45 -43z" />
    <glyph glyph-name="itilde" unicode="&#x129;" horiz-adv-x="278" 
d="M69 0v527h139v-527h-139zM24 603h-62q0 124 104 124q36 0 77 -19t66 -19q22 0 30 9t14 32h64q0 -65 -22.5 -93t-74.5 -28q-38 0 -84 18.5t-67 18.5q-40 0 -45 -43z" />
    <glyph glyph-name="Imacron" unicode="&#x12a;" horiz-adv-x="278" 
d="M65 0v717h148v-717h-148zM-27 790v79h333v-79h-333z" />
    <glyph glyph-name="imacron" unicode="&#x12b;" horiz-adv-x="278" 
d="M69 0v527h139v-527h-139zM-27 606v79h333v-79h-333z" />
    <glyph glyph-name="Ibreve" unicode="&#x12c;" horiz-adv-x="278" 
d="M65 0v717h148v-717h-148zM236 927h66q-6 -73 -43 -109t-124 -36q-85 0 -119 35t-40 110h66q7 -42 24 -56t76 -14q50 0 69 13.5t25 56.5z" />
    <glyph glyph-name="ibreve" unicode="&#x12d;" horiz-adv-x="278" 
d="M69 0v527h139v-527h-139zM236 743h66q-6 -73 -43 -109t-124 -36q-85 0 -119 35t-40 110h66q7 -42 24 -56t76 -14q50 0 69 13.5t25 56.5z" />
    <glyph glyph-name="Iogonek" unicode="&#x12e;" horiz-adv-x="278" 
d="M213 717v-717q-4 -1 -11 -4t-25.5 -13t-32 -21t-25 -29.5t-11.5 -38.5q0 -53 56 -53q12 0 29 2.5t27 5.5l11 3v-53q-32 -20 -102 -20q-124 0 -124 92q0 81 60 129v717h148z" />
    <glyph glyph-name="iogonek" unicode="&#x12f;" horiz-adv-x="278" 
d="M208 527v-527q-4 -1 -11 -4t-25.5 -13t-32 -21t-25 -29.5t-11.5 -38.5q0 -53 56 -53q12 0 29 2.5t28 5.5l10 3v-53q-32 -20 -102 -20q-124 0 -124 92q0 77 69 130v526h139zM59 656q0 41 16 58t63 17t63.5 -17t16.5 -58t-16.5 -57.5t-63.5 -16.5t-63 16.5t-16 57.5z" />
    <glyph glyph-name="Idotaccent" unicode="&#x130;" horiz-adv-x="278" 
d="M65 0v717h148v-717h-148zM60 840q0 41 16 58t63 17t63.5 -17t16.5 -58t-16.5 -57.5t-63.5 -16.5t-63 16.5t-16 57.5z" />
    <glyph glyph-name="dotlessi" unicode="&#x131;" horiz-adv-x="278" 
d="M69 0v527h139v-527h-139z" />
    <glyph glyph-name="IJ" unicode="&#x132;" horiz-adv-x="615" 
d="M75 354v363h148v-363h-148zM392 717h148v-510q0 -121 -54.5 -171.5t-175.5 -50.5q-72 0 -117 13t-71.5 46.5t-36 82t-10.5 127.5h148q1 -87 17.5 -116.5t67.5 -29.5q48 0 66 24.5t18 90.5v494z" />
    <glyph glyph-name="ij" unicode="&#x133;" horiz-adv-x="516" 
d="M69 0v527h139v-527h-139zM59 656q0 41 16 58t63 17t63.5 -17t16.5 -58t-16.5 -57.5t-63.5 -16.5t-63 16.5t-16 57.5zM445 527v-504q0 -144 -28.5 -189.5t-124.5 -45.5q-19 0 -34 1t-20 3l-5 1v113q17 -1 26 -1q24 0 35.5 14t11.5 55v553h139zM296 656q0 41 16 58t63 17
t63.5 -17t16.5 -58t-16.5 -57.5t-63.5 -16.5t-63 16.5t-16 57.5z" />
    <glyph glyph-name="Jcircumflex" unicode="&#x134;" 
d="M333 717h148v-510q0 -121 -54.5 -171.5t-175.5 -50.5q-72 0 -117 13.5t-71.5 47.5t-36 82t-10.5 126h148q1 -87 17.5 -116.5t67.5 -29.5q48 0 66 24.5t18 90.5v494zM235 781l110 145h125l110 -145h-112l-62 79l-59 -79h-112z" />
    <glyph glyph-name="jcircumflex" unicode="&#x135;" horiz-adv-x="278" 
d="M207 527v-504q0 -144 -28.5 -189.5t-124.5 -45.5q-19 0 -34 1t-20 3l-5 1v113q17 -1 26 -1q24 0 35.5 14t11.5 55v553h139zM-33 597l110 145h125l110 -145h-112l-62 79l-59 -79h-112z" />
    <glyph glyph-name="Kcommaaccent" unicode="&#x136;" horiz-adv-x="722" 
d="M82 0v717h148v-301l281 301h194l-285 -289l301 -428h-191l-213 322l-87 -89v-233h-148zM276 -203l35 156h134l-93 -156h-76z" />
    <glyph glyph-name="kcommaaccent" unicode="&#x137;" 
d="M68 0v717h139v-385l171 195h171l-184 -200l191 -327h-161l-128 229l-60 -62v-167h-139zM193 -203l35 156h134l-93 -156h-76z" />
    <glyph glyph-name="kgreenlandic" unicode="&#x138;" 
d="M68 0v527h139v-195l171 195h171l-184 -200l191 -327h-161l-128 229l-60 -62v-167h-139z" />
    <glyph glyph-name="Lacute" unicode="&#x139;" horiz-adv-x="611" 
d="M75 0v717h148v-591h358v-126h-506zM106 780l85 146h154l-143 -146h-96z" />
    <glyph glyph-name="lacute" unicode="&#x13a;" horiz-adv-x="278" 
d="M69 0v717h139v-717h-139zM90 780l85 146h154l-143 -146h-96z" />
    <glyph glyph-name="Lcommaaccent" unicode="&#x13b;" horiz-adv-x="611" 
d="M75 0v717h148v-591h358v-126h-506zM221 -203l35 156h134l-93 -156h-76z" />
    <glyph glyph-name="lcommaaccent" unicode="&#x13c;" horiz-adv-x="278" 
d="M69 0v717h139v-717h-139zM35 -203l35 156h134l-93 -156h-76z" />
    <glyph glyph-name="Lcaron" unicode="&#x13d;" horiz-adv-x="611" 
d="M75 0v717h148v-591h358v-126h-506zM273 561l35 156h134l-93 -156h-76z" />
    <glyph glyph-name="lcaron" unicode="&#x13e;" horiz-adv-x="278" 
d="M69 0v717h139v-717h-139zM259 561l35 156h134l-93 -156h-76z" />
    <glyph glyph-name="Ldot" unicode="&#x13f;" horiz-adv-x="611" 
d="M75 0v717h148v-591h358v-126h-506zM356 345q0 41 16 58t63 17t63.5 -17t16.5 -58t-16.5 -57.5t-63.5 -16.5t-63 16.5t-16 57.5z" />
    <glyph glyph-name="ldot" unicode="&#x140;" horiz-adv-x="398" 
d="M69 0v717h139v-717h-139zM259 345q0 41 16 58t63 17t63.5 -17t16.5 -58t-16.5 -57.5t-63.5 -16.5t-63 16.5t-16 57.5z" />
    <glyph glyph-name="Lslash" unicode="&#x141;" horiz-adv-x="611" 
d="M75 338v379h148v-288l139 94v-112l-139 -94v-191h358v-126h-506v227l-88 -58v111z" />
    <glyph glyph-name="lslash" unicode="&#x142;" horiz-adv-x="278" 
d="M69 385v332h139v-246l80 52v-103l-80 -52v-368h-139v281l-79 -52v103z" />
    <glyph glyph-name="Nacute" unicode="&#x143;" horiz-adv-x="722" 
d="M72 0v717h151l279 -473v473h148v-717h-148l-282 476v-476h-148zM301 780l85 146h154l-143 -146h-96z" />
    <glyph glyph-name="nacute" unicode="&#x144;" horiz-adv-x="611" 
d="M405 0v303q0 25 -0.5 37.5t-3 30t-8 25t-15.5 16t-25.5 11.5t-37.5 3q-70 0 -90 -37.5t-20 -138.5v-250h-139v527h132v-68q31 42 69.5 61.5t106.5 19.5q99 0 134.5 -47.5t35.5 -170.5v-322h-139zM216 596l85 146h154l-143 -146h-96z" />
    <glyph glyph-name="Ncommaaccent" unicode="&#x145;" horiz-adv-x="722" 
d="M72 0v717h151l279 -473v473h148v-717h-148l-282 476v-476h-148zM256 -203l35 156h134l-93 -156h-76z" />
    <glyph glyph-name="ncommaaccent" unicode="&#x146;" horiz-adv-x="611" 
d="M405 0v303q0 25 -0.5 37.5t-3 30t-8 25t-15.5 16t-25.5 11.5t-37.5 3q-70 0 -90 -37.5t-20 -138.5v-250h-139v527h132v-68q31 42 69.5 61.5t106.5 19.5q99 0 134.5 -47.5t35.5 -170.5v-322h-139zM211 -203l35 156h134l-93 -156h-76z" />
    <glyph glyph-name="Ncaron" unicode="&#x147;" horiz-adv-x="722" 
d="M72 0v717h151l279 -473v473h148v-717h-148l-282 476v-476h-148zM533 927l-110 -146h-126l-109 146h112l61 -79l60 79h112z" />
    <glyph glyph-name="ncaron" unicode="&#x148;" horiz-adv-x="611" 
d="M405 0v303q0 25 -0.5 37.5t-3 30t-8 25t-15.5 16t-25.5 11.5t-37.5 3q-70 0 -90 -37.5t-20 -138.5v-250h-139v527h132v-68q31 42 69.5 61.5t106.5 19.5q99 0 134.5 -47.5t35.5 -170.5v-322h-139zM478 743l-110 -146h-126l-109 146h112l61 -79l60 79h112z" />
    <glyph glyph-name="napostrophe" unicode="&#x149;" horiz-adv-x="611" 
d="M405 0v303q0 25 -0.5 37.5t-3 30t-8 25t-15.5 16t-25.5 11.5t-37.5 3q-70 0 -90 -37.5t-20 -138.5v-250h-139v527h132v-68q31 42 69.5 61.5t106.5 19.5q99 0 134.5 -47.5t35.5 -170.5v-322h-139zM89 561l35 156h134l-93 -156h-76z" />
    <glyph glyph-name="Eng" unicode="&#x14a;" horiz-adv-x="722" 
d="M72 0v717h151l279 -473v473h148v-694q0 -144 -28.5 -189.5t-124.5 -45.5l-69 5v113q17 -1 26 -1q24 0 36 14t12 55v26l-282 476v-476h-148z" />
    <glyph glyph-name="eng" unicode="&#x14b;" horiz-adv-x="611" 
d="M544 322v-299q0 -144 -28.5 -189.5t-124.5 -45.5q-19 0 -34 1t-20 3l-5 1v113q17 -1 26 -1q24 0 35.5 14t11.5 55v329q0 25 -0.5 37.5t-3 30t-8 25t-15.5 16t-25.5 11.5t-37.5 3q-70 0 -90 -37.5t-20 -138.5v-250h-139v527h132v-68q31 42 69.5 61.5t106.5 19.5
q99 0 134.5 -47.5t35.5 -170.5z" />
    <glyph glyph-name="Omacron" unicode="&#x14c;" horiz-adv-x="778" 
d="M43 359q0 94 21 163.5t53 109t79.5 63t91.5 31t99 7.5q57 0 102.5 -8t93 -32t79.5 -64t52.5 -109t20.5 -161q0 -91 -19.5 -159.5t-51 -108.5t-78 -65t-93 -33.5t-103.5 -8.5q-59 0 -107 9t-94 34.5t-77 66.5t-50 108t-19 157zM193 355q0 -77 12 -126t39 -75t61.5 -35
t89.5 -9q35 0 59 4t50.5 18.5t43 40.5t27 74t10.5 116q0 136 -45.5 190t-153.5 54q-104 0 -148.5 -54t-44.5 -198zM222 790v79h333v-79h-333z" />
    <glyph glyph-name="omacron" unicode="&#x14d;" horiz-adv-x="611" 
d="M576 264q0 -277 -272 -277q-269 0 -269 277t270 277q271 0 271 -277zM433 265q0 89 -28.5 125.5t-99.5 36.5q-70 0 -98.5 -36.5t-28.5 -126.5q0 -91 28.5 -127t99.5 -36q70 0 98.5 36t28.5 128zM139 606v79h333v-79h-333z" />
    <glyph glyph-name="Obreve" unicode="&#x14e;" horiz-adv-x="778" 
d="M43 359q0 94 21 163.5t53 109t79.5 63t91.5 31t99 7.5q57 0 102.5 -8t93 -32t79.5 -64t52.5 -109t20.5 -161q0 -91 -19.5 -159.5t-51 -108.5t-78 -65t-93 -33.5t-103.5 -8.5q-59 0 -107 9t-94 34.5t-77 66.5t-50 108t-19 157zM193 355q0 -77 12 -126t39 -75t61.5 -35
t89.5 -9q35 0 59 4t50.5 18.5t43 40.5t27 74t10.5 116q0 136 -45.5 190t-153.5 54q-104 0 -148.5 -54t-44.5 -198zM486 927h66q-6 -73 -43 -109t-124 -36q-85 0 -119 35t-40 110h66q7 -42 24 -56t76 -14q50 0 69 13.5t25 56.5z" />
    <glyph glyph-name="obreve" unicode="&#x14f;" horiz-adv-x="611" 
d="M576 264q0 -277 -272 -277q-269 0 -269 277t270 277q271 0 271 -277zM433 265q0 89 -28.5 125.5t-99.5 36.5q-70 0 -98.5 -36.5t-28.5 -126.5q0 -91 28.5 -127t99.5 -36q70 0 98.5 36t28.5 128zM402 743h66q-6 -73 -43 -109t-124 -36q-85 0 -119 35t-40 110h66
q7 -42 24 -56t76 -14q50 0 69 13.5t25 56.5z" />
    <glyph glyph-name="Ohungarumlaut" unicode="&#x150;" horiz-adv-x="778" 
d="M43 359q0 94 21 163.5t53 109t79.5 63t91.5 31t99 7.5q57 0 102.5 -8t93 -32t79.5 -64t52.5 -109t20.5 -161q0 -91 -19.5 -159.5t-51 -108.5t-78 -65t-93 -33.5t-103.5 -8.5q-59 0 -107 9t-94 34.5t-77 66.5t-50 108t-19 157zM193 355q0 -77 12 -126t39 -75t61.5 -35
t89.5 -9q35 0 59 4t50.5 18.5t43 40.5t27 74t10.5 116q0 136 -45.5 190t-153.5 54q-104 0 -148.5 -54t-44.5 -198zM211 780l85 146h154l-143 -146h-96zM427 780l85 146h154l-143 -146h-96z" />
    <glyph glyph-name="ohungarumlaut" unicode="&#x151;" horiz-adv-x="611" 
d="M576 264q0 -277 -272 -277q-269 0 -269 277t270 277q271 0 271 -277zM433 265q0 89 -28.5 125.5t-99.5 36.5q-70 0 -98.5 -36.5t-28.5 -126.5q0 -91 28.5 -127t99.5 -36q70 0 98.5 36t28.5 128zM128 596l85 146h154l-143 -146h-96zM344 596l85 146h154l-143 -146h-96z
" />
    <glyph glyph-name="OE" unicode="&#x152;" horiz-adv-x="1000" 
d="M43 358q0 108 23.5 184t66.5 116.5t94.5 57.5t116.5 17q103 0 153 -46v30h461v-123h-313v-157h289v-123h-289v-191h318v-123h-466v29q-49 -45 -151 -45q-145 0 -224 87t-79 287zM193 356q0 -102 18 -156.5t49.5 -72t89.5 -17.5q27 0 45.5 3.5t40 18.5t34 41.5t21 75.5
t8.5 118q0 134 -34.5 187t-120.5 53q-83 0 -117 -53.5t-34 -197.5z" />
    <glyph glyph-name="oe" unicode="&#x153;" horiz-adv-x="944" 
d="M764 151h142q-12 -90 -71.5 -127t-165.5 -37q-141 0 -189 67q-57 -67 -186 -67q-56 0 -99 12.5t-81 42t-58.5 86t-20.5 137.5q0 140 64.5 207.5t195.5 67.5q132 0 189 -71q31 36 73 53.5t115 17.5q137 0 188.5 -70t51.5 -245h-356q5 -73 25.5 -98.5t93.5 -25.5q43 0 61 9
t28 41zM413 265q0 91 -24 126t-94 35q-69 0 -93 -35t-24 -127q0 -93 24.5 -128t93.5 -35q68 0 92.5 34.5t24.5 129.5zM556 313h215q-4 68 -29 90.5t-77 22.5q-60 0 -82.5 -24t-26.5 -89z" />
    <glyph glyph-name="Racute" unicode="&#x154;" horiz-adv-x="722" 
d="M75 0v717h311q40 0 63 -1t57 -5t53 -12t42 -23.5t35 -38.5t20.5 -57t8.5 -78q0 -99 -36.5 -147t-103.5 -64l187 -291h-180l-176 282h-133v-282h-148zM365 594h-142v-189h133q94 0 126.5 18.5t32.5 83.5q0 54 -28 70.5t-122 16.5zM281 780l85 146h154l-143 -146h-96z" />
    <glyph glyph-name="racute" unicode="&#x155;" horiz-adv-x="389" 
d="M204 0h-139v527h131v-66q24 42 54.5 59.5t81.5 17.5l36 -3v-133q-16 3 -44 3q-32 0 -54.5 -11t-35 -28t-19.5 -46t-9 -56.5t-2 -68.5v-195zM145 596l85 146h154l-143 -146h-96z" />
    <glyph glyph-name="Rcommaaccent" unicode="&#x156;" horiz-adv-x="722" 
d="M75 0v717h311q40 0 63 -1t57 -5t53 -12t42 -23.5t35 -38.5t20.5 -57t8.5 -78q0 -99 -36.5 -147t-103.5 -64l187 -291h-180l-176 282h-133v-282h-148zM365 594h-142v-189h133q94 0 126.5 18.5t32.5 83.5q0 54 -28 70.5t-122 16.5zM276 -203l35 156h134l-93 -156h-76z" />
    <glyph glyph-name="rcommaaccent" unicode="&#x157;" horiz-adv-x="389" 
d="M204 0h-139v527h131v-66q24 42 54.5 59.5t81.5 17.5l36 -3v-133q-16 3 -44 3q-32 0 -54.5 -11t-35 -28t-19.5 -46t-9 -56.5t-2 -68.5v-195zM30 -203l35 156h134l-93 -156h-76z" />
    <glyph glyph-name="Rcaron" unicode="&#x158;" horiz-adv-x="722" 
d="M75 0v717h311q40 0 63 -1t57 -5t53 -12t42 -23.5t35 -38.5t20.5 -57t8.5 -78q0 -99 -36.5 -147t-103.5 -64l187 -291h-180l-176 282h-133v-282h-148zM365 594h-142v-189h133q94 0 126.5 18.5t32.5 83.5q0 54 -28 70.5t-122 16.5zM523 927l-110 -146h-126l-109 146h112
l61 -79l60 79h112z" />
    <glyph glyph-name="rcaron" unicode="&#x159;" horiz-adv-x="389" 
d="M204 0h-139v527h131v-66q24 42 54.5 59.5t81.5 17.5l36 -3v-133q-16 3 -44 3q-32 0 -54.5 -11t-35 -28t-19.5 -46t-9 -56.5t-2 -68.5v-195zM387 743l-110 -146h-126l-109 146h112l61 -79l60 79h112z" />
    <glyph glyph-name="Sacute" unicode="&#x15a;" horiz-adv-x="667" 
d="M40 225h148q3 -33 8 -50.5t20.5 -34.5t47 -23.5t83.5 -6.5q65 0 97.5 17t32.5 67q0 34 -18.5 53t-64.5 32l-174 47q-77 20 -120.5 63t-43.5 133q0 211 269 211q275 0 280 -226h-148q-3 29 -6.5 42t-16.5 29.5t-41 22.5t-74 6q-60 0 -86.5 -15t-26.5 -56q0 -36 18 -52
t55 -26l160 -43q44 -12 73.5 -25t58 -36t42.5 -60t14 -89q0 -221 -280 -221q-166 0 -233 60t-74 181zM254 780l85 146h154l-143 -146h-96z" />
    <glyph glyph-name="sacute" unicode="&#x15b;" 
d="M32 162h139q4 -42 28.5 -57t82.5 -15q54 0 76 11.5t22 39.5q0 22 -13 33t-49 21l-146 35q-63 15 -93.5 47t-30.5 98q0 82 54.5 123.5t176.5 41.5q105 0 162 -36t62 -127h-139q-5 36 -22.5 48t-64.5 12q-52 0 -71 -11.5t-19 -35.5q0 -19 12.5 -30t45.5 -19l130 -31
q75 -18 109.5 -51.5t34.5 -97.5q0 -174 -238 -174q-241 0 -249 175zM208 596l85 146h154l-143 -146h-96z" />
    <glyph glyph-name="Scircumflex" unicode="&#x15c;" horiz-adv-x="667" 
d="M40 225h148q3 -33 8 -50.5t20.5 -34.5t47 -23.5t83.5 -6.5q65 0 97.5 17t32.5 67q0 34 -18.5 53t-64.5 32l-174 47q-77 20 -120.5 63t-43.5 133q0 211 269 211q275 0 280 -226h-148q-3 29 -6.5 42t-16.5 29.5t-41 22.5t-74 6q-60 0 -86.5 -15t-26.5 -56q0 -36 18 -52
t55 -26l160 -43q44 -12 73.5 -25t58 -36t42.5 -60t14 -89q0 -221 -280 -221q-166 0 -233 60t-74 181zM151 781l110 145h125l110 -145h-112l-62 79l-59 -79h-112z" />
    <glyph glyph-name="scircumflex" unicode="&#x15d;" 
d="M32 162h139q4 -42 28.5 -57t82.5 -15q54 0 76 11.5t22 39.5q0 22 -13 33t-49 21l-146 35q-63 15 -93.5 47t-30.5 98q0 82 54.5 123.5t176.5 41.5q105 0 162 -36t62 -127h-139q-5 36 -22.5 48t-64.5 12q-52 0 -71 -11.5t-19 -35.5q0 -19 12.5 -30t45.5 -19l130 -31
q75 -18 109.5 -51.5t34.5 -97.5q0 -174 -238 -174q-241 0 -249 175zM105 597l110 145h125l110 -145h-112l-62 79l-59 -79h-112z" />
    <glyph glyph-name="Scedilla" unicode="&#x15e;" horiz-adv-x="667" 
d="M331 -220q-31 0 -58 5t-39 10l-12 5l8 51q34 -12 82 -12q32 0 45.5 8.5t13.5 29.5q0 18 -10 25.5t-32 7.5h-35l11 75q-142 8 -200.5 67.5t-64.5 172.5h148q3 -33 8 -50.5t20.5 -34.5t47 -23.5t83.5 -6.5q65 0 97.5 17t32.5 67q0 34 -18.5 53t-64.5 32l-174 47
q-77 20 -120.5 63t-43.5 133q0 211 269 211q275 0 280 -226h-148q-3 29 -6.5 42t-16.5 29.5t-41 22.5t-74 6q-60 0 -86.5 -15t-26.5 -56q0 -36 18 -52t55 -26l160 -43q44 -12 73.5 -25t58 -36t42.5 -60t14 -89q0 -218 -271 -221l-3 -21h10q101 0 101 -91q0 -48 -31.5 -70
t-101.5 -22z" />
    <glyph glyph-name="scedilla" unicode="&#x15f;" 
d="M276 -220q-31 0 -58 5t-39 10l-12 5l8 51q34 -12 82 -12q32 0 45.5 8.5t13.5 29.5q0 18 -10 25.5t-32 7.5h-35l11 78q-211 12 -218 174h139q4 -42 28.5 -57t82.5 -15q54 0 76 11.5t22 39.5q0 22 -13 33t-49 21l-146 35q-63 15 -93.5 47t-30.5 98q0 82 54.5 123.5
t176.5 41.5q105 0 162 -36t62 -127h-139q-5 36 -22.5 48t-64.5 12q-52 0 -71 -11.5t-19 -35.5q0 -19 12.5 -30t45.5 -19l130 -31q75 -18 109.5 -51.5t34.5 -97.5q0 -165 -217 -173l-4 -25h10q101 0 101 -91q0 -48 -31.5 -70t-101.5 -22z" />
    <glyph glyph-name="Scaron" unicode="&#x160;" horiz-adv-x="667" 
d="M40 225h148q3 -33 8 -50.5t20.5 -34.5t47 -23.5t83.5 -6.5q65 0 97.5 17t32.5 67q0 34 -18.5 53t-64.5 32l-174 47q-77 20 -120.5 63t-43.5 133q0 211 269 211q275 0 280 -226h-148q-3 29 -6.5 42t-16.5 29.5t-41 22.5t-74 6q-60 0 -86.5 -15t-26.5 -56q0 -36 18 -52
t55 -26l160 -43q44 -12 73.5 -25t58 -36t42.5 -60t14 -89q0 -221 -280 -221q-166 0 -233 60t-74 181zM505 927l-110 -146h-126l-109 146h112l61 -79l60 79h112z" />
    <glyph glyph-name="scaron" unicode="&#x161;" 
d="M32 162h139q4 -42 28.5 -57t82.5 -15q54 0 76 11.5t22 39.5q0 22 -13 33t-49 21l-146 35q-63 15 -93.5 47t-30.5 98q0 82 54.5 123.5t176.5 41.5q105 0 162 -36t62 -127h-139q-5 36 -22.5 48t-64.5 12q-52 0 -71 -11.5t-19 -35.5q0 -19 12.5 -30t45.5 -19l130 -31
q75 -18 109.5 -51.5t34.5 -97.5q0 -174 -238 -174q-241 0 -249 175zM450 743l-110 -146h-126l-109 146h112l61 -79l60 79h112z" />
    <glyph glyph-name="uni0162" unicode="&#x162;" horiz-adv-x="611" 
d="M232 0v591h-216v126h579v-126h-215v-591h-50l-6 -37h10q101 0 101 -91q0 -48 -31.5 -70t-101.5 -22q-31 0 -58 5t-39 10l-12 5l8 51q34 -12 82 -12q32 0 45.5 8.5t13.5 29.5q0 18 -10 25.5t-32 7.5h-35l13 90h-46z" />
    <glyph glyph-name="uni0163" unicode="&#x163;" horiz-adv-x="333" 
d="M184 -220q-31 0 -58 5t-39 10l-12 5l8 51q34 -12 82 -12q32 0 45.5 8.5t13.5 29.5q0 18 -10 25.5t-32 7.5h-35l13 86q-20 3 -34 9.5t-22.5 20t-13.5 24.5t-7 37t-2.5 43.5t-0.5 56.5v228h-69v112h69v130h139v-130h90v-112h-90v-226q0 -59 8 -73.5t48 -14.5l34 2v-103
q-48 -8 -98 -8l-5 -29h10q101 0 101 -91q0 -48 -31.5 -70t-101.5 -22z" />
    <glyph glyph-name="Tcaron" unicode="&#x164;" horiz-adv-x="611" 
d="M232 0v591h-216v126h579v-126h-215v-591h-148zM478 927l-110 -146h-126l-109 146h112l61 -79l60 79h112z" />
    <glyph glyph-name="tcaron" unicode="&#x165;" horiz-adv-x="333" 
d="M309 527v-112h-90v-226q0 -59 8 -73.5t48 -14.5l34 2v-103q-48 -8 -99 -8q-22 0 -39 2.5t-30 5.5t-22.5 11.5l-16 14.5t-11 21.5t-7 25.5t-3.5 32.5t-1 37v44.5v228h-69v112h69v130h139v-130h90zM269 561l35 156h134l-93 -156h-76z" />
    <glyph glyph-name="Tbar" unicode="&#x166;" horiz-adv-x="611" 
d="M232 0v312h-119v116h119v163h-216v126h579v-126h-215v-163h119v-116h-119v-312h-148z" />
    <glyph glyph-name="tbar" unicode="&#x167;" horiz-adv-x="333" 
d="M309 527v-112h-90v-88h90v-112h-90v-26q0 -59 8 -73.5t48 -14.5l34 2v-103q-48 -8 -99 -8q-22 0 -39 2.5t-30 5.5t-22.5 11.5l-16 14.5t-11 21.5t-7 25.5t-3.5 32.5t-1 37v44.5v28h-69v112h69v88h-69v112h69v130h139v-130h90z" />
    <glyph glyph-name="Utilde" unicode="&#x168;" horiz-adv-x="722" 
d="M73 717h148v-378q0 -52 1 -81t6 -58.5t13.5 -43.5t25 -26.5t39.5 -16t57 -3.5q90 0 114 41t24 182v384h148v-474q0 -81 -19.5 -133.5t-59 -79t-86.5 -36.5t-116 -10q-72 0 -122 10.5t-91.5 38t-61.5 80t-20 132.5v472zM245 787h-62q0 124 104 124q36 0 77 -19t66 -19
q22 0 30 9t14 32h64q0 -65 -22.5 -93t-74.5 -28q-38 0 -84 18.5t-67 18.5q-40 0 -45 -43z" />
    <glyph glyph-name="utilde" unicode="&#x169;" horiz-adv-x="611" 
d="M412 0v56q-43 -69 -163 -69q-98 0 -140 43.5t-42 154.5v342h139v-333q0 -53 19.5 -73t72.5 -20q57 0 81.5 25.5t24.5 96.5v304h139v-527h-131zM190 603h-62q0 124 104 124q36 0 77 -19t66 -19q22 0 30 9t14 32h64q0 -65 -22.5 -93t-74.5 -28q-38 0 -84 18.5t-67 18.5
q-40 0 -45 -43z" />
    <glyph glyph-name="Umacron" unicode="&#x16a;" horiz-adv-x="722" 
d="M73 717h148v-378q0 -52 1 -81t6 -58.5t13.5 -43.5t25 -26.5t39.5 -16t57 -3.5q90 0 114 41t24 182v384h148v-474q0 -81 -19.5 -133.5t-59 -79t-86.5 -36.5t-116 -10q-72 0 -122 10.5t-91.5 38t-61.5 80t-20 132.5v472zM194 790v79h333v-79h-333z" />
    <glyph glyph-name="umacron" unicode="&#x16b;" horiz-adv-x="611" 
d="M412 0v56q-43 -69 -163 -69q-98 0 -140 43.5t-42 154.5v342h139v-333q0 -53 19.5 -73t72.5 -20q57 0 81.5 25.5t24.5 96.5v304h139v-527h-131zM139 606v79h333v-79h-333z" />
    <glyph glyph-name="Ubreve" unicode="&#x16c;" horiz-adv-x="722" 
d="M73 717h148v-378q0 -52 1 -81t6 -58.5t13.5 -43.5t25 -26.5t39.5 -16t57 -3.5q90 0 114 41t24 182v384h148v-474q0 -81 -19.5 -133.5t-59 -79t-86.5 -36.5t-116 -10q-72 0 -122 10.5t-91.5 38t-61.5 80t-20 132.5v472zM458 927h66q-6 -73 -43 -109t-124 -36
q-85 0 -119 35t-40 110h66q7 -42 24 -56t76 -14q50 0 69 13.5t25 56.5z" />
    <glyph glyph-name="ubreve" unicode="&#x16d;" horiz-adv-x="611" 
d="M412 0v56q-43 -69 -163 -69q-98 0 -140 43.5t-42 154.5v342h139v-333q0 -53 19.5 -73t72.5 -20q57 0 81.5 25.5t24.5 96.5v304h139v-527h-131zM402 743h66q-6 -73 -43 -109t-124 -36q-85 0 -119 35t-40 110h66q7 -42 24 -56t76 -14q50 0 69 13.5t25 56.5z" />
    <glyph glyph-name="Uring" unicode="&#x16e;" horiz-adv-x="722" 
d="M73 717h148v-378q0 -52 1 -81t6 -58.5t13.5 -43.5t25 -26.5t39.5 -16t57 -3.5q90 0 114 41t24 182v384h148v-474q0 -81 -19.5 -133.5t-59 -79t-86.5 -36.5t-116 -10q-72 0 -122 10.5t-91.5 38t-61.5 80t-20 132.5v472zM475 859q0 -111 -114 -111t-114 111t114 111
t114 -111zM412 859q0 51 -51 51t-51 -51t51 -51t51 51z" />
    <glyph glyph-name="uring" unicode="&#x16f;" horiz-adv-x="611" 
d="M412 0v56q-43 -69 -163 -69q-98 0 -140 43.5t-42 154.5v342h139v-333q0 -53 19.5 -73t72.5 -20q57 0 81.5 25.5t24.5 96.5v304h139v-527h-131zM419 675q0 -111 -114 -111t-114 111t114 111t114 -111zM356 675q0 51 -51 51t-51 -51t51 -51t51 51z" />
    <glyph glyph-name="Uhungarumlaut" unicode="&#x170;" horiz-adv-x="722" 
d="M73 717h148v-378q0 -52 1 -81t6 -58.5t13.5 -43.5t25 -26.5t39.5 -16t57 -3.5q90 0 114 41t24 182v384h148v-474q0 -81 -19.5 -133.5t-59 -79t-86.5 -36.5t-116 -10q-72 0 -122 10.5t-91.5 38t-61.5 80t-20 132.5v472zM183 780l85 146h154l-143 -146h-96zM399 780l85 146
h154l-143 -146h-96z" />
    <glyph glyph-name="uhungarumlaut" unicode="&#x171;" horiz-adv-x="611" 
d="M412 0v56q-43 -69 -163 -69q-98 0 -140 43.5t-42 154.5v342h139v-333q0 -53 19.5 -73t72.5 -20q57 0 81.5 25.5t24.5 96.5v304h139v-527h-131zM128 596l85 146h154l-143 -146h-96zM344 596l85 146h154l-143 -146h-96z" />
    <glyph glyph-name="Uogonek" unicode="&#x172;" horiz-adv-x="722" 
d="M73 717h148v-378q0 -52 1 -81t6 -58.5t13.5 -43.5t25 -26.5t39.5 -16t57 -3.5q90 0 114 41t24 182v384h148v-474q0 -164 -89 -220q-15 -9 -33.5 -24.5t-39.5 -46t-21 -58.5q0 -53 56 -53q12 0 29 2.5t27 5.5l11 3v-53q-32 -20 -102 -20q-124 0 -124 92q0 70 59 115
q-34 -2 -54 -2q-72 0 -122 10.5t-91.5 38t-61.5 80t-20 132.5v472z" />
    <glyph glyph-name="uogonek" unicode="&#x173;" horiz-adv-x="611" 
d="M412 0v56q-43 -69 -163 -69q-98 0 -140 43.5t-42 154.5v342h139v-333q0 -53 19.5 -73t72.5 -20q57 0 81.5 25.5t24.5 96.5v304h139v-527q-4 -1 -11 -4t-25.5 -13t-32 -21t-25 -29.5t-11.5 -38.5q0 -53 56 -53q12 0 29 2.5t27 5.5l11 3v-53q-32 -20 -102 -20
q-124 0 -124 92q0 82 77 129z" />
    <glyph glyph-name="Wcircumflex" unicode="&#x174;" horiz-adv-x="944" 
d="M359 0h-156q-125 369 -192 717h156q41 -257 114 -513l110 513h163l114 -516q78 265 115 516h150q-67 -348 -192 -717h-157l-112 521zM300 781l110 145h125l110 -145h-112l-62 79l-59 -79h-112z" />
    <glyph glyph-name="wcircumflex" unicode="&#x175;" horiz-adv-x="778" 
d="M312 0h-150q-100 260 -155 527h144q24 -183 87 -368l82 368h138l84 -368q64 183 88 368h141q-61 -284 -158 -527h-149l-77 339zM215 597l110 145h125l110 -145h-112l-62 79l-59 -79h-112z" />
    <glyph glyph-name="Ycircumflex" unicode="&#x176;" horiz-adv-x="667" 
d="M262 0v281q-140 195 -253 436h174q54 -143 156 -302q93 147 150 302h169q-108 -236 -248 -438v-279h-148zM167 781l110 145h125l110 -145h-112l-62 79l-59 -79h-112z" />
    <glyph glyph-name="ycircumflex" unicode="&#x177;" 
d="M9 527h153q39 -192 117 -384l115 384h146l-188 -527q-21 -59 -32.5 -87.5t-28.5 -58t-35.5 -41t-45 -18.5t-65.5 -7l-70 4v109q13 -2 23 -2q47 0 71.5 15.5t36.5 71.5q-120 263 -197 541zM107 597l110 145h125l110 -145h-112l-62 79l-59 -79h-112z" />
    <glyph glyph-name="Ydieresis" unicode="&#x178;" horiz-adv-x="667" 
d="M262 0v281q-140 195 -253 436h174q54 -143 156 -302q93 147 150 302h169q-108 -236 -248 -438v-279h-148zM362 849q0 37 14.5 52.5t56.5 15.5t57 -15.5t15 -52.5t-14.5 -52t-57.5 -15q-42 0 -56.5 15t-14.5 52zM161 849q0 37 14.5 52.5t56.5 15.5t57 -15.5t15 -52.5
t-14.5 -52t-57.5 -15q-42 0 -56.5 15t-14.5 52z" />
    <glyph glyph-name="Zacute" unicode="&#x179;" horiz-adv-x="611" 
d="M21 0v121l373 473h-352v123h540v-116l-381 -475h388v-126h-568zM236 780l85 146h154l-143 -146h-96z" />
    <glyph glyph-name="zacute" unicode="&#x17a;" horiz-adv-x="500" 
d="M19 0v105l270 310h-251v112h430v-108l-269 -305h281v-114h-461zM180 596l85 146h154l-143 -146h-96z" />
    <glyph glyph-name="Zdotaccent" unicode="&#x17b;" horiz-adv-x="611" 
d="M21 0v121l373 473h-352v123h540v-116l-381 -475h388v-126h-568zM236 840q0 41 16 58t63 17t63.5 -17t16.5 -58t-16.5 -57.5t-63.5 -16.5t-63 16.5t-16 57.5z" />
    <glyph glyph-name="zdotaccent" unicode="&#x17c;" horiz-adv-x="500" 
d="M19 0v105l270 310h-251v112h430v-108l-269 -305h281v-114h-461zM170 656q0 41 16 58t63 17t63.5 -17t16.5 -58t-16.5 -57.5t-63.5 -16.5t-63 16.5t-16 57.5z" />
    <glyph glyph-name="Zcaron" unicode="&#x17d;" horiz-adv-x="611" 
d="M21 0v121l373 473h-352v123h540v-116l-381 -475h388v-126h-568zM478 927l-110 -146h-126l-109 146h112l61 -79l60 79h112z" />
    <glyph glyph-name="zcaron" unicode="&#x17e;" horiz-adv-x="500" 
d="M19 0v105l270 310h-251v112h430v-108l-269 -305h281v-114h-461zM422 743l-110 -146h-126l-109 146h112l61 -79l60 79h112z" />
    <glyph glyph-name="florin" unicode="&#x192;" 
d="M98 388v99h130l15 72q21 88 55.5 129.5t117.5 41.5q23 0 45 -4t33 -8l11 -3v-108q-31 9 -58 9q-34 0 -49 -16.5t-20 -45.5l-11 -67h113v-99h-128l-65 -378q-6 -35 -10.5 -56t-18 -56t-31.5 -55.5t-50 -36.5t-74 -16q-22 0 -44 4t-33 8l-10 4v110q30 -10 61 -10
q37 0 48.5 24t27.5 114l59 344h-114z" />
    <glyph glyph-name="uni0218" unicode="&#x218;" horiz-adv-x="667" 
d="M40 225h148q3 -33 8 -50.5t20.5 -34.5t47 -23.5t83.5 -6.5q65 0 97.5 17t32.5 67q0 34 -18.5 53t-64.5 32l-174 47q-77 20 -120.5 63t-43.5 133q0 211 269 211q275 0 280 -226h-148q-3 29 -6.5 42t-16.5 29.5t-41 22.5t-74 6q-60 0 -86.5 -15t-26.5 -56q0 -36 18 -52
t55 -26l160 -43q44 -12 73.5 -25t58 -36t42.5 -60t14 -89q0 -221 -280 -221q-166 0 -233 60t-74 181zM249 -203l35 156h134l-93 -156h-76z" />
    <glyph glyph-name="uni0219" unicode="&#x219;" 
d="M32 162h139q4 -42 28.5 -57t82.5 -15q54 0 76 11.5t22 39.5q0 22 -13 33t-49 21l-146 35q-63 15 -93.5 47t-30.5 98q0 82 54.5 123.5t176.5 41.5q105 0 162 -36t62 -127h-139q-5 36 -22.5 48t-64.5 12q-52 0 -71 -11.5t-19 -35.5q0 -19 12.5 -30t45.5 -19l130 -31
q75 -18 109.5 -51.5t34.5 -97.5q0 -174 -238 -174q-241 0 -249 175zM193 -203l35 156h134l-93 -156h-76z" />
    <glyph glyph-name="uni021A" unicode="&#x21a;" horiz-adv-x="611" 
d="M232 0v591h-216v126h579v-126h-215v-591h-148zM202 -203l35 156h134l-93 -156h-76z" />
    <glyph glyph-name="uni021B" unicode="&#x21b;" horiz-adv-x="333" 
d="M309 527v-112h-90v-226q0 -59 8 -73.5t48 -14.5l34 2v-103q-48 -8 -99 -8q-22 0 -39 2.5t-30 5.5t-22.5 11.5l-16 14.5t-11 21.5t-7 25.5t-3.5 32.5t-1 37v44.5v228h-69v112h69v130h139v-130h90zM92 -203l35 156h134l-93 -156h-76z" />
    <glyph glyph-name="Adotaccent" unicode="&#x226;" horiz-adv-x="722" 
d="M708 0h-162q-13 50 -43 152h-291l-42 -152h-157q114 381 264 717h166q158 -351 265 -717zM358 553q-57 -128 -107 -278h213q-49 146 -106 278zM279 840q0 41 16 58t63 17t63.5 -17t16.5 -58t-16.5 -57.5t-63.5 -16.5t-63 16.5t-16 57.5z" />
    <glyph glyph-name="adotaccent" unicode="&#x227;" 
d="M179 367h-131q5 98 59.5 135.5t167.5 37.5q114 0 168.5 -35t54.5 -119v-386h-133v40q-51 -53 -162 -53q-91 0 -131 37.5t-40 108.5q0 81 43 122t110 51l174 27v32q0 36 -20 49.5t-70 13.5t-67.5 -13t-22.5 -48zM359 201v42l-97 -16q-47 -7 -69 -22t-22 -53
q0 -31 18.5 -46.5t63.5 -15.5q60 0 83 28.5t23 82.5zM198 656q0 41 16 58t63 17t63.5 -17t16.5 -58t-16.5 -57.5t-63.5 -16.5t-63 16.5t-16 57.5z" />
    <glyph glyph-name="Odotaccent" unicode="&#x22e;" horiz-adv-x="778" 
d="M43 359q0 94 21 163.5t53 109t79.5 63t91.5 31t99 7.5q57 0 102.5 -8t93 -32t79.5 -64t52.5 -109t20.5 -161q0 -91 -19.5 -159.5t-51 -108.5t-78 -65t-93 -33.5t-103.5 -8.5q-59 0 -107 9t-94 34.5t-77 66.5t-50 108t-19 157zM193 355q0 -77 12 -126t39 -75t61.5 -35
t89.5 -9q35 0 59 4t50.5 18.5t43 40.5t27 74t10.5 116q0 136 -45.5 190t-153.5 54q-104 0 -148.5 -54t-44.5 -198zM309 840q0 41 16 58t63 17t63.5 -17t16.5 -58t-16.5 -57.5t-63.5 -16.5t-63 16.5t-16 57.5z" />
    <glyph glyph-name="odotaccent" unicode="&#x22f;" horiz-adv-x="611" 
d="M576 264q0 -277 -272 -277q-269 0 -269 277t270 277q271 0 271 -277zM433 265q0 89 -28.5 125.5t-99.5 36.5q-70 0 -98.5 -36.5t-28.5 -126.5q0 -91 28.5 -127t99.5 -36q70 0 98.5 36t28.5 128zM226 656q0 41 16 58t63 17t63.5 -17t16.5 -58t-16.5 -57.5t-63.5 -16.5
t-63 16.5t-16 57.5z" />
    <glyph glyph-name="Ymacron" unicode="&#x232;" horiz-adv-x="667" 
d="M262 0v281q-140 195 -253 436h174q54 -143 156 -302q93 147 150 302h169q-108 -236 -248 -438v-279h-148zM167 790v79h333v-79h-333z" />
    <glyph glyph-name="ymacron" unicode="&#x233;" 
d="M9 527h153q39 -192 117 -384l115 384h146l-188 -527q-21 -59 -32.5 -87.5t-28.5 -58t-35.5 -41t-45 -18.5t-65.5 -7l-70 4v109q13 -2 23 -2q47 0 71.5 15.5t36.5 71.5q-120 263 -197 541zM111 606v79h333v-79h-333z" />
    <glyph glyph-name="circumflex" unicode="&#x2c6;" horiz-adv-x="333" 
d="M-6 597l110 145h125l110 -145h-112l-62 79l-59 -79h-112z" />
    <glyph glyph-name="caron" unicode="&#x2c7;" horiz-adv-x="333" 
d="M339 743l-110 -146h-126l-109 146h112l61 -79l60 79h112z" />
    <glyph glyph-name="breve" unicode="&#x2d8;" horiz-adv-x="333" 
d="M263 743h66q-6 -73 -43 -109t-124 -36q-85 0 -119 35t-40 110h66q7 -42 24 -56t76 -14q50 0 69 13.5t25 56.5z" />
    <glyph glyph-name="dotaccent" unicode="&#x2d9;" horiz-adv-x="333" 
d="M87 656q0 41 16 58t63 17t63.5 -17t16.5 -58t-16.5 -57.5t-63.5 -16.5t-63 16.5t-16 57.5z" />
    <glyph glyph-name="ring" unicode="&#x2da;" horiz-adv-x="333" 
d="M281 675q0 -111 -114 -111t-114 111t114 111t114 -111zM218 675q0 51 -51 51t-51 -51t51 -51t51 51z" />
    <glyph glyph-name="ogonek" unicode="&#x2db;" horiz-adv-x="333" 
d="M151 4h120v-4q-4 -1 -11 -4t-25.5 -13t-32 -21t-25 -29.5t-11.5 -38.5q0 -53 56 -53q12 0 29 2.5t27 5.5l11 3v-53q-32 -20 -102 -20q-124 0 -124 92q0 26 9 49.5t22 38t26 25.5t22 16z" />
    <glyph glyph-name="tilde" unicode="&#x2dc;" horiz-adv-x="333" 
d="M51 603h-62q0 124 104 124q36 0 77 -19t66 -19q22 0 30 9t14 32h64q0 -65 -23 -93t-74 -28q-38 0 -84 18.5t-67 18.5q-40 0 -45 -43z" />
    <glyph glyph-name="hungarumlaut" unicode="&#x2dd;" horiz-adv-x="333" 
d="M18 596l85 146h154l-143 -146h-96zM234 596l85 146h154l-143 -146h-96z" />
    <glyph glyph-name="Wgrave" unicode="&#x1e80;" horiz-adv-x="944" 
d="M359 0h-156q-125 369 -192 717h156q41 -257 114 -513l110 513h163l114 -516q78 265 115 516h150q-67 -348 -192 -717h-157l-112 521zM456 926l85 -146h-96l-142 146h153z" />
    <glyph glyph-name="wgrave" unicode="&#x1e81;" horiz-adv-x="778" 
d="M312 0h-150q-100 260 -155 527h144q24 -183 87 -368l82 368h138l84 -368q64 183 88 368h141q-61 -284 -158 -527h-149l-77 339zM363 742l85 -146h-96l-142 146h153z" />
    <glyph glyph-name="Wacute" unicode="&#x1e82;" horiz-adv-x="944" 
d="M359 0h-156q-125 369 -192 717h156q41 -257 114 -513l110 513h163l114 -516q78 265 115 516h150q-67 -348 -192 -717h-157l-112 521zM402 780l85 146h154l-143 -146h-96z" />
    <glyph glyph-name="wacute" unicode="&#x1e83;" horiz-adv-x="778" 
d="M312 0h-150q-100 260 -155 527h144q24 -183 87 -368l82 368h138l84 -368q64 183 88 368h141q-61 -284 -158 -527h-149l-77 339zM329 596l85 146h154l-143 -146h-96z" />
    <glyph glyph-name="Wdieresis" unicode="&#x1e84;" horiz-adv-x="944" 
d="M359 0h-156q-125 369 -192 717h156q41 -257 114 -513l110 513h163l114 -516q78 265 115 516h150q-67 -348 -192 -717h-157l-112 521zM501 849q0 37 14.5 52.5t56.5 15.5t57 -15.5t15 -52.5t-14.5 -52t-57.5 -15q-42 0 -56.5 15t-14.5 52zM300 849q0 37 14.5 52.5
t56.5 15.5t57 -15.5t15 -52.5t-14.5 -52t-57.5 -15q-42 0 -56.5 15t-14.5 52z" />
    <glyph glyph-name="wdieresis" unicode="&#x1e85;" horiz-adv-x="778" 
d="M312 0h-150q-100 260 -155 527h144q24 -183 87 -368l82 368h138l84 -368q64 183 88 368h141q-61 -284 -158 -527h-149l-77 339zM417 665q0 37 14.5 52.5t56.5 15.5t57 -15.5t15 -52.5t-14.5 -52t-57.5 -15q-42 0 -56.5 15t-14.5 52zM216 665q0 37 14.5 52.5t56.5 15.5
t57 -15.5t15 -52.5t-14.5 -52t-57.5 -15q-42 0 -56.5 15t-14.5 52z" />
    <glyph glyph-name="Etilde" unicode="&#x1ebc;" horiz-adv-x="667" 
d="M75 0v717h529v-123h-381v-157h352v-123h-352v-191h397v-123h-545zM218 787h-62q0 124 104 124q36 0 77 -19t66 -19q22 0 30 9t14 32h64q0 -65 -22.5 -93t-74.5 -28q-38 0 -84 18.5t-67 18.5q-40 0 -45 -43z" />
    <glyph glyph-name="etilde" unicode="&#x1ebd;" 
d="M376 151h142q-12 -88 -70.5 -126t-169.5 -38q-64 0 -108.5 12.5t-78 43.5t-49.5 87t-16 139q0 49 6 86.5t22.5 73.5t44.5 59.5t74.5 37.5t110.5 14q137 0 188.5 -70t51.5 -245h-355q4 -74 26.5 -99t81.5 -25q42 0 65.5 10.5t33.5 39.5zM170 313h215q-4 68 -29.5 90.5
t-78.5 22.5q-60 0 -81.5 -24t-25.5 -89zM162 603h-62q0 124 104 124q36 0 77 -19t66 -19q22 0 30 9t14 32h64q0 -65 -22.5 -93t-74.5 -28q-38 0 -84 18.5t-67 18.5q-40 0 -45 -43z" />
    <glyph glyph-name="Ygrave" unicode="&#x1ef2;" horiz-adv-x="667" 
d="M262 0v281q-140 195 -253 436h174q54 -143 156 -302q93 147 150 302h169q-108 -236 -248 -438v-279h-148zM307 926l85 -146h-96l-142 146h153z" />
    <glyph glyph-name="ygrave" unicode="&#x1ef3;" 
d="M9 527h153q39 -192 117 -384l115 384h146l-188 -527q-21 -59 -32.5 -87.5t-28.5 -58t-35.5 -41t-45 -18.5t-65.5 -7l-70 4v109q13 -2 23 -2q47 0 71.5 15.5t36.5 71.5q-120 263 -197 541zM242 742l85 -146h-96l-142 146h153z" />
    <glyph glyph-name="Ytilde" unicode="&#x1ef8;" horiz-adv-x="667" 
d="M262 0v281q-140 195 -253 436h174q54 -143 156 -302q93 147 150 302h169q-108 -236 -248 -438v-279h-148zM218 787h-62q0 124 104 124q36 0 77 -19t66 -19q22 0 30 9t14 32h64q0 -65 -22.5 -93t-74.5 -28q-38 0 -84 18.5t-67 18.5q-40 0 -45 -43z" />
    <glyph glyph-name="ytilde" unicode="&#x1ef9;" 
d="M9 527h153q39 -192 117 -384l115 384h146l-188 -527q-21 -59 -32.5 -87.5t-28.5 -58t-35.5 -41t-45 -18.5t-65.5 -7l-70 4v109q13 -2 23 -2q47 0 71.5 15.5t36.5 71.5q-120 263 -197 541zM162 603h-62q0 124 104 124q36 0 77 -19t66 -19q22 0 30 9t14 32h64
q0 -65 -22.5 -93t-74.5 -28q-38 0 -84 18.5t-67 18.5q-40 0 -45 -43z" />
    <glyph glyph-name="endash" unicode="&#x2013;" 
d="M28 220v105h500v-105h-500z" />
    <glyph glyph-name="emdash" unicode="&#x2014;" horiz-adv-x="1000" 
d="M-2 220v105h1004v-105h-1004z" />
    <glyph glyph-name="quoteleft" unicode="&#x2018;" horiz-adv-x="278" 
d="M140 581q45 0 60 -15.5t15 -54.5q0 -40 -15 -56t-60 -16q-46 0 -61 18.5t-15 66.5q0 119 28.5 159t104.5 40v-62q-32 0 -42.5 -15.5t-14.5 -64.5z" />
    <glyph glyph-name="quoteright" unicode="&#x2019;" horiz-adv-x="278" 
d="M138 581q-45 0 -60 15.5t-15 54.5q0 40 15 56t60 16q47 0 61.5 -18t14.5 -67q0 -119 -28.5 -159t-104.5 -40v62q32 0 42.5 15.5t14.5 64.5z" />
    <glyph glyph-name="quotesinglbase" unicode="&#x201a;" horiz-adv-x="278" 
d="M137 -6q-45 0 -60 15.5t-15 54.5q0 40 15 56t60 16q41 0 58.5 -20.5t17.5 -64.5q0 -119 -28.5 -159t-104.5 -40v62q32 0 42.5 15.5t14.5 64.5z" />
    <glyph glyph-name="quotedblleft" unicode="&#x201c;" horiz-adv-x="500" 
d="M366 581q45 0 60 -15.5t15 -54.5q0 -40 -15 -56t-60 -16q-46 0 -61 17.5t-15 67.5q0 119 28.5 159t104.5 40v-62q-32 0 -42.5 -15.5t-14.5 -64.5zM134 581q45 0 60 -15.5t15 -54.5q0 -40 -15 -56t-60 -16q-46 0 -61 17.5t-15 67.5q0 119 28.5 159t104.5 40v-62
q-32 0 -42.5 -15.5t-14.5 -64.5z" />
    <glyph glyph-name="quotedblright" unicode="&#x201d;" horiz-adv-x="500" 
d="M133 581q-45 0 -60 15.5t-15 54.5q0 40 15 56t60 16t60.5 -18t15.5 -67q0 -119 -28.5 -159t-104.5 -40v62q32 0 42.5 15.5t14.5 64.5zM365 581q-45 0 -60 15.5t-15 54.5q0 40 15 56t60 16q46 0 61 -17.5t15 -67.5q0 -119 -28.5 -159t-104.5 -40v62q32 0 42.5 15.5
t14.5 64.5z" />
    <glyph glyph-name="quotedblbase" unicode="&#x201e;" horiz-adv-x="500" 
d="M133 -6q-45 0 -60 15.5t-15 54.5q0 40 15 56t60 16q41 0 58.5 -20.5t17.5 -64.5q0 -119 -28.5 -159t-104.5 -40v62q32 0 42.5 15.5t14.5 64.5zM365 -6q-45 0 -60 15.5t-15 54.5q0 40 15 56t60 16q41 0 58.5 -20.5t17.5 -64.5q0 -119 -28.5 -159t-104.5 -40v62
q32 0 42.5 15.5t14.5 64.5z" />
    <glyph glyph-name="dagger" unicode="&#x2020;" 
d="M212 -171v563h-176v113h176v209h132v-209h176v-113h-176v-563h-132z" />
    <glyph glyph-name="daggerdbl" unicode="&#x2021;" 
d="M211 -171v198h-175v113h175v266h-175v113h175v195h133v-195h176v-113h-176v-266h176v-113h-176v-198h-133z" />
    <glyph glyph-name="bullet" unicode="&#x2022;" horiz-adv-x="350" 
d="M17 358q0 84 37 120.5t121 36.5t121 -36.5t37 -120.5t-37.5 -121.5t-120.5 -37.5q-84 0 -121 37t-37 122z" />
    <glyph glyph-name="ellipsis" unicode="&#x2026;" horiz-adv-x="1000" 
d="M87 68q0 41 16 58t63 17t63.5 -17t16.5 -58t-16.5 -57.5t-63.5 -16.5t-63 16.5t-16 57.5zM753 68q0 41 16 58t63 17t63.5 -17t16.5 -58t-16.5 -57.5t-63.5 -16.5t-63 16.5t-16 57.5zM420 68q0 41 16 58t63 17t63.5 -17t16.5 -58t-16.5 -57.5t-63.5 -16.5t-63 16.5
t-16 57.5z" />
    <glyph glyph-name="perthousand" unicode="&#x2030;" horiz-adv-x="1000" 
d="M97 546q0 -42 13 -60t42 -18t42 18t13 60t-13 60t-42 18t-42 -18t-13 -60zM-2 546q0 86 37.5 128t117.5 42q78 0 115.5 -41t37.5 -128q0 -85 -37 -128t-117 -43q-154 0 -154 170zM99 -21l365 737h81l-364 -737h-82zM439 152q0 -42 13 -60t42 -18t42 18t13 60t-13 60
t-42 18t-42 -18t-13 -60zM340 152q0 86 37.5 128t117.5 42q78 0 115.5 -41t37.5 -128q0 -85 -37 -128t-117 -43q-154 0 -154 170zM792 152q0 -42 13 -60t42 -18t42 18t13 60t-13 60t-42 18t-42 -18t-13 -60zM693 152q0 86 37.5 128t117.5 42q78 0 115.5 -41t37.5 -128
q0 -85 -37 -128t-117 -43q-154 0 -154 170z" />
    <glyph glyph-name="guilsinglleft" unicode="&#x2039;" horiz-adv-x="333" 
d="M65 313l160 159l66 -66l-134 -133l134 -133l-66 -66l-160 159v80z" />
    <glyph glyph-name="guilsinglright" unicode="&#x203a;" horiz-adv-x="333" 
d="M107 472l160 -159v-80l-160 -159l-66 66l134 133l-134 133z" />
    <glyph glyph-name="fraction" unicode="&#x2044;" horiz-adv-x="167" 
d="M-77 0h-78l412 717h77z" />
    <glyph glyph-name="Euro" unicode="&#x20ac;" 
d="M33 463h53q18 127 76.5 189t187.5 62q123 0 200 -67l-37 -110q-15 17 -26.5 27.5t-45 23t-76.5 12.5q-64 0 -95.5 -30.5t-38.5 -106.5h256l-30 -88h-230v-54h212l-31 -88h-177q6 -73 38 -104t110 -31q37 0 65.5 7.5t41.5 15t32 22.5v-125q-59 -34 -148 -34
q-99 0 -158.5 28t-87 80t-38.5 141h-84l32 88h46v54h-78z" />
    <glyph glyph-name="trademark" unicode="&#x2122;" horiz-adv-x="1000" 
d="M178 309v328h-120v80h335v-80h-119v-328h-96zM461 309v408h144l87 -179l86 179h144v-408h-96v294l-96 -194h-78l-95 194v-294h-96z" />
    <glyph glyph-name="minus" unicode="&#x2212;" horiz-adv-x="584" 
d="M40 228v117h503v-117h-503z" />
    <glyph glyph-name="fi" unicode="&#xfb01;" horiz-adv-x="611" 
d="M10 527h77v53q0 75 33 110.5t122 35.5l82 -6v-108q-34 2 -48 2q-18 0 -28.5 -3.5t-15 -13.5t-5.5 -18.5t-1 -26.5v-25h95v-112h-95v-415h-139v415h-77v112zM401 0v527h139v-527h-139zM391 656q0 41 16 58t63 17t63.5 -17t16.5 -58t-16.5 -57.5t-63.5 -16.5t-63 16.5
t-16 57.5z" />
    <glyph glyph-name="fl" unicode="&#xfb02;" horiz-adv-x="611" 
d="M10 527h77v53q0 75 33 110.5t122 35.5l82 -6v-108q-34 2 -48 2q-18 0 -28.5 -3.5t-15 -13.5t-5.5 -18.5t-1 -26.5v-25h95v-112h-95v-415h-139v415h-77v112zM401 0v717h139v-717h-139z" />
    <glyph glyph-name="Gtilde" horiz-adv-x="778" 
d="M732 385v-84q0 -170 -86.5 -243.5t-249.5 -73.5q-58 0 -105.5 9t-95 34.5t-80 66t-52.5 108.5t-20 157q0 94 22 163.5t55.5 109t82.5 63t94 31t99 7.5q305 0 325 -239h-148q-7 56 -45.5 84.5t-127.5 28.5q-108 0 -157.5 -53.5t-49.5 -195.5q0 -76 13.5 -126t41.5 -76
t62.5 -36t86.5 -10q107 0 147 35t40 117h-166v123h314zM283 787h-62q0 124 104 124q36 0 77 -19t66 -19q22 0 30 9t14 32h64q0 -65 -23 -93t-74 -28q-38 0 -84 18.5t-67 18.5q-40 0 -45 -43z" />
    <glyph glyph-name="gtilde" horiz-adv-x="611" 
d="M53 -55h154q2 -13 5.5 -20.5t13 -17t29.5 -14t51 -4.5q65 0 85 25.5t20 94.5v49q-43 -59 -145 -59q-115 0 -171 63.5t-56 206.5q0 141 54.5 206t163.5 65q120 0 161 -70v57h132v-491q0 -37 -1.5 -60t-7 -52.5t-15.5 -47.5t-29 -37t-46 -29.5t-66.5 -17t-91.5 -6.5
q-116 0 -177 36t-63 123zM182 267q0 -86 23.5 -120t87.5 -34q67 0 93 36.5t26 122.5q0 85 -26 119.5t-94 34.5q-60 0 -85 -33t-25 -126zM190 603h-62q0 124 104 124q36 0 77 -19t66 -19q22 0 30 9t14 32h64q0 -65 -22.5 -93t-74.5 -28q-38 0 -84 18.5t-67 18.5
q-40 0 -45 -43z" />
    <glyph glyph-name="Mcircumflex" horiz-adv-x="833" 
d="M69 0v717h218l132 -387l127 387h217v-717h-148v527l-127 -374h-144l-127 374v-527h-148zM246 781l110 145h125l110 -145h-112l-62 79l-59 -79h-112z" />
    <glyph glyph-name="mcircumflex" horiz-adv-x="889" 
d="M63 527h132v-56q48 69 158 69q60 0 91.5 -17t53.5 -57q15 22 29.5 35.5t48 26t80.5 12.5q97 0 133.5 -46.5t36.5 -138.5v-355h-139v313q0 65 -16 89t-63 24q-62 0 -78 -36.5t-16 -137.5v-252h-139v307q0 33 -0.5 47t-4.5 32t-12.5 24t-23.5 11t-39 5q-62 0 -77.5 -32.5
t-15.5 -137.5v-256h-139v527zM272 597l110 145h125l110 -145h-112l-62 79l-59 -79h-112z" />
    <glyph glyph-name="Ncircumflex" horiz-adv-x="722" 
d="M72 0v717h151l279 -473v473h148v-717h-148l-282 476v-476h-148zM188 781l110 145h125l110 -145h-112l-62 79l-59 -79h-112z" />
    <glyph glyph-name="ncircumflex" horiz-adv-x="611" 
d="M405 0v303q0 25 -0.5 37.5t-3 30t-8 25t-15.5 16t-25.5 11.5t-37.5 3q-70 0 -90 -37.5t-20 -138.5v-250h-139v527h132v-68q31 42 69.5 61.5t106.5 19.5q99 0 134.5 -47.5t35.5 -170.5v-322h-139zM133 597l110 145h125l110 -145h-112l-62 79l-59 -79h-112z" />
    <glyph glyph-name="Ndieresis" horiz-adv-x="722" 
d="M72 0v717h151l279 -473v473h148v-717h-148l-282 476v-476h-148zM390 849q0 37 14.5 52.5t56.5 15.5t57 -15.5t15 -52.5t-14.5 -52t-57.5 -15q-42 0 -56.5 15t-14.5 52zM189 849q0 37 14.5 52.5t56.5 15.5t57 -15.5t15 -52.5t-14.5 -52t-57.5 -15q-42 0 -56.5 15t-14.5 52
z" />
    <glyph glyph-name="ndieresis" horiz-adv-x="611" 
d="M405 0v303q0 25 -0.5 37.5t-3 30t-8 25t-15.5 16t-25.5 11.5t-37.5 3q-70 0 -90 -37.5t-20 -138.5v-250h-139v527h132v-68q31 42 69.5 61.5t106.5 19.5q99 0 134.5 -47.5t35.5 -170.5v-322h-139zM334 665q0 37 14.5 52.5t56.5 15.5t57 -15.5t15 -52.5t-14.5 -52
t-57.5 -15q-42 0 -56.5 15t-14.5 52zM133 665q0 37 14.5 52.5t56.5 15.5t57 -15.5t15 -52.5t-14.5 -52t-57.5 -15q-42 0 -56.5 15t-14.5 52z" />
    <glyph glyph-name="commaaccent" horiz-adv-x="333" 
d="M82 -203l35 156h134l-93 -156h-76z" />
    </font>
</defs>
</svg>
